Софт-Архив

скачать буря торрент

Рейтинг: 4.5/5.0 (804 проголосовавших)

Категория: Торрент-файлы

Описание

Скачать торрент Буря

Буря / The Tempest (1979) HDRip

Оригинальное название: The Tempest

Год выхода: 1979

Жанр: драма, авангард

Режиссер: Дерек Джармен

В ролях: Питер Булл, Дэвид Мейер, Нил Каннингэм, Хиткот Уильямс, Toyah Willcox, Ричард Уорвик, Карл Джонсон, Джек Биркетт, Кристофер Биггинс, Питер Тернер

Во время бури гибнет парусник, спасаются немногие, среди которых сын короля Неаполя Фердинанд. Его выхаживают волшебник Просперо (бывший герцог Милана) и его дочь Миранда, когда-то изгнанные королём Неаполя из своих владений.

По одноименной пьесе Уильяма Шекспира.

Хотя Джармен и не отходит в целом от текста, он создает свой, типично джарменовский мир, полный насыщенных визуальных образов. Знаменитый финал, в котором Элизабет Уэлш поет "Stormy weather" - один из самых запоминающихся моментов во всей истории британского кино.

Студия: Boyd's Company

Перевод: Любительский (одноголосый)

Видео: 704x528 (4:3), 23.976 fps, DivX 5.x/6.x, 1910 kbps, Qf 0.214

1. AC3, 48000Hz, 128 kb/s, stereo (2/0) - русский

2. AC3, 48000Hz, 128 kb/s, stereo (2/0) - английский

скачать буря торрент:

  • скачать
  • скачать
  • Другие статьи

    Скачать фильм Буря

    Скачать фильм Буря / The Tempest (Джули Тэймор) [2010, фэнтези, драма, мелодрама, комедия, BDRip 1080p] MVO - торрент

    Скачать фильм бесплатно через торрент. Фильм доступен на нашем торрент-трекере бесплатно, без регистрации и смс.

    Скачать буря торрентПеревод: Профессиональный (многоголосый, закадровый)

    Формат: BDRip, MKV, H.264, AC3/DTS

    Режиссер: Джули Тэймор

    9712 kbps avg, 0.259 bit/pixel

    Аудио #1: Русский : 48 kHz, AC3, 2 ch,

    192 kbps avg [Профессиональный (многоголосый, закадровый) / НТВ+]

    Аудио #2: Английский : 48 kHz, DTS, 6 ch,

    1510 kbps avg [Оригинал]

    Format version : Version 2

    File size : 8.89 GiB

    Duration : 1h 51mn

    Overall bit rate : 11.4 Mbps

    Encoded date : UTC 2012-01-29 18:59:56

    Writing application : mkvmerge v5.0.1 ('Es ist Sommer') built on Nov 6 2011 16:23:40

    Writing library : libebml v1.2.2 + libmatroska v1.3.0

    Format/Info : Advanced Video Codec

    Format profile : High@L4.1

    Format settings, CABAC : Yes

    Format settings, ReFrames : 5 frames

    Codec ID : V_MPEG4/ISO/AVC

    Duration : 1h 51mn

    Bit rate : 9 712 Kbps

    Width : 1 920 pixels

    Height : 816 pixels

    Display aspect ratio : 2.35:1

    Frame rate : 23.976 fps

    Color space : YUV

    Chroma subsampling : 4:2:0

    Bit depth : 8 bits

    Scan type : Progressive

    Stream size : 7.39 GiB (83%)

    Writing library : x264 core 115 r2008 4c552d8

    Encoding settings : cabac=1 / ref=5 / deblock=1:0:0 / analyse=0x3:0x133 / me=umh / subme=9 / psy=1 / psy_rd=1.00:0.00 / mixed_ref=1 / me_range=16 / chroma_me=1 / trellis=2 / 8x8dct=1 / cqm=0 / deadzone=21,11 / fast_pskip=0 / chroma_qp_offset=-2 / threads=18 / sliced_threads=0 / nr=0 / decimate=1 / interlaced=0 / bluray_compat=0 / constrained_intra=0 / bframes=3 / b_pyramid=2 / b_adapt=2 / b_bias=0 / direct=3 / weightb=1 / open_gop=0 / weightp=2 / keyint=250 / keyint_min=23 / scenecut=40 / intra_refresh=0 / rc_lookahead=50 / rc=2pass / mbtree=1 / bitrate=9712 / ratetol=1.0 / qcomp=0.60 / qpmin=0 / qpmax=69 / qpstep=4 / cplxblur=20.0 / qblur=0.5 / ip_ratio=1.40 / aq=1:1.00

    Format/Info : Audio Coding 3

    Mode extension : CM (complete main)

    Codec ID : A_AC3

    Duration : 1h 51mn

    Bit rate mode : Constant

    Bit rate : 192 Kbps

    Channel(s) : 2 channels

    Channel positions : Front: L R

    Sampling rate : 48.0 KHz

    Bit depth : 16 bits

    Compression mode : Lossy

    Stream size : 153 MiB (2%)

    Format/Info : Digital Theater Systems

    Codec ID : A_DTS

    Duration : 1h 51mn

    Bit rate mode : Constant

    Bit rate : 1 510 Kbps

    Channel(s) : 6 channels

    Channel positions : Front: L C R, Side: L R, LFE

    Sampling rate : 48.0 KHz

    Bit depth : 24 bits

    Compression mode : Lossy

    Stream size : 1.18 GiB (13%)

    Codec ID : S_TEXT/UTF8

    Codec ID/Info : UTF-8 Plain Text

    Скачать буря торрент

    Скачать буря торрент

    Скачать буря торрент

    Скачать буря торрент

    Скачать буря торрент

    Скачать буря торрент

    Релиз

    Информация о торренте:

    Статус: Проверен Зарегистрирован на трекере: 2012-01-30 10:02

    Скачать фильмы Буря столетия - ТОРРЕНТИНО - торрент трекер - бесплатно DVDRip

    Буря столетия / Storm of the century (1999) DVDRip

    Информация о фильме

    Название: Буря столетия

    Оригинальное название: Storm of the century

    Год выхода: 1999

    Жанр: Мистика, Ужасы, Триллер, Драма

    Режиссер: Крэйг Р. Баксли / Craig R. Baxley

    В ролях: Тим Дэйли, Колм Фиори, Дебра Фарентино, Кэйси Семашко, Джеффри Де Манн, Джулиэнн Николсон, Диллан Кристофер, Бекки Энн Бэйкер, Спенсер Бреслин, Майра Картер, Нада Деспотович, Джереми Джордан, Рон Перкинс, Стив Рэнкин, Эдам Золотин, Торри Хиггинсон

    Жителям маленького острова Новой Англии грозит смертельная опасность. На остров надвигается чудовищная буря, названная метеорологами бурей столетия. Но силы природы оказываются менее опасными, чем таинственный незнакомец, появившийся на острове незадолго до катастрофы. В самый разгар бури немногим уцелевшим островитянам предстоит разгадать тайну странника, пришедшего к ним со смертоносной миссией.

    Продолжительность: 02:13:19 + 02:03:27

    Перевод 1: Профессиональный многоголосый закадровый

    Перевод 2: Авторский одноголосый закадровый Живов

    Видео: XVID, 704*528 (4:3), 23.976 fps,

    1748 kbps avg, 0.196 bit/pixel

    Многоголосый перевод - 48 kHz, AC3 2.0 ch,

    Авторский перевод (Живов) - 48 kHz, AC3 Dolby Digital, 3/2 (L,C,R,l,r) + LFE ch,

    Буря (2010) HDRip скачать торрент

    Буря (2010) HDRip

    Скачать буря торрент

    Оригинальное название фильма: The Tempest

    Премьера состоялась: 2010

    Жанр фильма: Драма, Мелодрама, Комедия

    Режиссер фильма: Джули Тэймор

    В фильме снимались: Хелен Миррер, Расселл Брэнд, Альфред Молина, Алан Камминг, Крис Купер, Фелисити Джонс, Джуд Акувидике, Рив Карни, Дэвид Стрэтэйрн, Том Конти, Бен Уишоу, Джимон Хунсу

    Проспера управляет волшебным островом и заботится о своей юной дочери Миранде. После кораблекрушения в ее владения попадают королевские особы и их окружение. Катастрофа не была случайностью. Когда-то эти люди изгнали Просперу с ее родной земли, и теперь она, используя свою магическую силу, направила корабль врагов на остров, чтобы свести с ними счеты. Проспера заставляет своих мучителей проходить через опасные, а порой — очень смешные испытания. Однако между Мирандой и принцем Фердинандом вспыхивает любовь. И это то волшебство, с которым даже Проспера не может справиться…

    Формат: AVI (XviD)

    Видео: 1362 kb/s, 720x304

    Аудио: Russian / English: AC3, 192 kb/s (2 ch)

    Перевод: Профессиональное (многоголосое) [НТВ+]

    Скачать Буря через торрент в хорошем качестве скачать фильм Буря 2010 торрент

    Буря через торрент

    Скачать буря торрентСкачать буря торрент

    Описание фильма Буря Буря трейлер Скачать Буря через торрент в хорошем качестве

    Аудио: (2 ch) 128 kb/s

    Скачать буря торрент Скачать буря торрент

    Аудио: 48.0 KHz, 6 ch, 384 Kbps, CBR

    Скачать буря торрент Скачать буря торрент

    Аудио: Audio1: Russian: AC3, 192 kb/s (2 ch)

    Audio2: English: AC3, 192 kb/s (2 ch)

    Скачать буря торрент Скачать буря торрент

    Аудио: Audio1: Русский (AC3, 6 ch, 448 Кбит/c, 48,0 КГц)

    Audio2: английский (AC3, 2 ch, 192 Кбит/c, 48,0 КГц)

    Скачать буря торрент Скачать буря торрент

    Аудио: 48000 Hz, 2 каналов, 192 kbit/s

    Скачать буря торрент Скачать буря торрент

    Аудио: Аудио #1: AC-3, 48.0 kHz, 6 ch, 448 kbps avg, CBR (RUS)

    Аудио #2: AC-3, 48.0 kHz, 6 ch, 448 kbps avg, CBR (ENG)

    Скачать буря торрент Скачать буря торрент

    Аудио: Аудио#1: 48 kHz, AC3 Dolby Digital, 2/0 (L,R) ch,

    192 kbps avg | MVO

    Аудио#2: 48 kHz, AC3 Dolby Digital, 3/2 (L,C,R,l,r) + LFE ch,

    448.00 kbps avg | ENG

    Аудио#3: 48 kHz, AC3 Dolby Digital, 3/2 (L,C,R,l,r) + LFE ch,

    448.00 kbps avg | AVO [acolith] (narod.ru)

    Субтитры: Английские, русские

    Скачать буря торрент Скачать буря торрент

    Аудио: Аудио#1: 48 kHz, AC3 Dolby Digital, 3/2 (L,C,R,l,r) + LFE ch,

    448.00 kbps avg | RUS

    Аудио#2: 48 kHz, AC3 Dolby Digital, 3/2 (L,C,R,l,r) + LFE ch,

    448.00 kbps avg | ENG

    Субтитры: Английские, русские

    Скачать буря торрент Скачать буря торрент

    Аудио: Аудио 1: AC3 Dolby Digital, 3/2 (L,C,R,l,r) + LFE ch,

    448.00 kbps avg / R5 многоголосый

    Аудио 2: AC3 Dolby Digital, 3/2 (L,C,R,l,r) + LFE ch,

    448.00 kbps avg / Ю. Сербин / Отдельно

    Аудио 3: AC3 Dolby Digital, 3/2 (L,C,R,l,r) + LFE ch,

    448.00 kbps avg / acolith / Отдельно

    Аудио 4: AC3 Dolby Digital, 3/2 (L,C,R,l,r) + LFE ch,

    448.00 kbps avg / Английский / Отдельно

    Доп. информация: Перевод: Русский профессиональный перевод (R5) + Русский авторский одноголосый перевод (6 / 448 / Ю. Сербин/ Отдельно) + Русский авторский одноголосый перевод (6 / 448 / acolith / Отдельно) + Оригинальная дорожка (6 / 448 / Отдельно)

    Субтитры: Русские (R5, Acolith), Английские.