Софт-Архив

Эмин Все Альбомы Скачать Торрент

Рейтинг: 4.7/5.0 (580 проголосовавших)

Категория: Торрент-файлы

Описание

Музыкальный Альбом Emin - 8 в падении (2015) MP3 скачать торрент

Категория материала: Музыка торрент / Альбомы / Русские альбомы
Формат | Качество: MP3 | 320 Kbps
Количество треков: 12
Время звучания: 00:46:45
Теги (жанр, год выпуска): 2015 Pop
Размер архива: 107.2 MB (cкачиваний: 431)

01. Одна на миллион
02. Не больно
03. Забыть тебя
04. Ты
05. Ушла без слов
06. Стань моей
07. Я нравлюсь женщинам (feat. Григорий Лепс)
08. 8 в падении
09. Жить, чтобы жить
10. Я буду за тебя молиться
11. Прощай
12. Отец (посвящается моему отцу)


Уважемый меломан! Если у Вас возникли вопросы, трудности, Вы впервые используете торрент и не знаете, как скачать Альбом Emin - 8 в падении (2015) . то рекомендуем Вам ознакомиться с простой и наглядной инструкцией о том - как скачивать через торрент на Андроид .
Если торрент-файл недоступен, или уже "устарел" (нет раздающих), или у Вас есть вопросы/предложения по содержанию и оформлению представленного на этой странице материала, то просто заполните эту форму

Мы также предлагаем Вам посетить наиболее популярные разделы нашего музыкального сайта, где есть сборники и альбомы, которые могут Вас заинтересовать:
сборники музыки 2016
сборники музыки 2017 (раздел еще не актуален)
сборники mp3 музыки
сборники FLAC музыки

Похожая музыка Комментарии (0)

эмин все альбомы скачать торрент:

  • скачать
  • скачать
  • Другие статьи

    Эмин все альбомы скачать торрент

    Emin • Дискография
    Emin Ağalarov/Agalarov | Discography | Albums 9 | Singles 11 Жанр. Pop/Jazz/Jazz-Rock • Страна. Azerbaijan |Russia |USA • Годы. 2006-2014 • Битрейт. 192-320 kbps • Прод-сть. 09:37:20 Цитата:

    Эмин Араз оглы Агала́ров (азерб. Ağalarov Emin Araz oğlu) (род. 12 декабря 1979) — российский предприниматель, вице-президент группы компаний Crocus Group, певец, музыкант. Более известен как - Эмин.


    -
    Albums • Альбомы:
    01 • 2006 - Still (320 kbps) [49:01]

    Emin - "Still" (2006)
    01. Still 03:43
    02. Welcome To My World 02:39
    03. Up To You 04:03
    04. And I Love You So 03:57
    05. Without You 03:45
    06. It’s Impossible 03:23
    07. Feel 02:42
    08. Untill It's Time For You To Go 04:05
    09. It’s Over 03:13
    10. Just 02:58
    11. Love Letters 02:49
    12. Tonight 07:56
    13. Still (Alternative Version) 03:46

    02 • 2007 - Incredible (320 kbps) [46:08]

    Emin - "Incredible" (2007)
    01. Don't Cry 02:55
    02. You Can See It In My Eyes 04:00
    03. Incredible 03:24
    04. Complicated Happiness 04:03
    05. Sunday Morning 04:20
    06. Now Is The Time 03:25
    07. Promises 03:36
    08. I'm Losing You 02:07
    09. Sometimes 03:01
    10. Hey 08:39
    11. Your Love Is Gone 03:24
    12. 12. Don't Cry - (Rmx) 03:09

    03 • 2008 - Obsession (320 kbps) [59:28]

    Emin - "Obsession" (2008)
    01. Stick Together 04:19
    02. Make The World Go Away 04:24
    03. The Wonder Of You 03:12
    04. Can't Help Falling In Love 03:08
    05. Would You Believe 03:51
    06. My Boy 04:20
    07. Obsession 05:24
    08. My Way 04:18
    09. Torno A Settembre 05:05
    10. Always On My Mind 03:53
    11. I'll Never Fall In Love Again 03:43
    12. Make The World Go Away (Rmx) 06:45
    13. Stick Together (Rmx) 07:01

    04 • 2009 - Devotion (320 kbps) [57:43]

    Emin - "Devotion" (2009)
    01. Devotion 04:40
    02. Giving In 03:55
    03. You Don`t Have To Say You Love Me 03:17
    04. Tomorrow 03:11
    05. Love Story 05:11
    06. Beatiful Day 04:16
    07. Unchained Melody 03:26
    08. Goodbye 04:16
    09. I Who Have Nothing 03:24
    10. Do You Know 03:05
    11. You Don`t Know Me 04:16
    12. She 03:57
    13. I Will Find The Way 02:49
    14. Fuoco 05:00
    15. For Old Time Sake 02:53

    05 • 2010 - Wonder (320 kbps) [50:15]

    Emin - "Wonder" (2010)
    01. Falling 03:27
    03. All I Need To Night 03:35
    04. Just For One Night 03:52
    05. Tell Me You'll Be Mine 03:37
    06. You Don't Even Know 04:03
    07. Hold You In My Arms 03:54
    08. Any Time You Fall 03:25
    09. One Last Dance 03:56
    10. Don't Go 03:39
    11. Wonder 04:11
    12. Miss America 03:55
    13. Just For One Night (Groove Brothers Remix) (Bonus Track) 04:20
    14. You Don't Even Know (Groove Brothers Remix) (Bonus Track) 04:12

    06 • 2011 - Wonder[Подарочное Издание] (320 kbps) [01:00:57]

    Emin - "Wonder[Подарочное Издание]" (2011)
    01. Falling 03:27
    02. Obvious 03:37
    03. All I Need Tonight 03:35
    04. Just For One Night 03:53
    05. Tell Me You’ll Be Mine 03:37
    06. You Don’t Even Know 04:04
    07. Hold You In My Arms 03:55
    08. Any Time You Fall 03:25
    09. One Last Dance 03:57
    10. Don’t Go 03:39
    11. Wonder 04:11
    12. Miss America (Bonus Track) 03:55
    13. Just For One Night (Groove Brothers Remix) 04:21
    14. Just For One Night (Emetex & Dj M-Voice Remix) 03:46
    15. Just For One Night (Dj Fisun Remix) 03:17
    16. You Don’t Even Know (Groove Brothers Remix) 04:12

    07 • 2012 - After the Thunder (256 kbps) [46:51]

    Emin - "After the Thunder" (2012)
    01. Baby Get Higher 03:34
    02. Never Enough 03:39
    03. Heart Keeps Beating 03:22
    04. Oxygen 03:46
    05. Walk Through Walls 03:48
    06. After The Thunder 03:58
    07. Beautiful Taboo 03:44
    08. Dead Roses 03:24
    09. I Should've Known Better 03:05
    10. I'll Be There 03:39
    11. Better 03:44
    12. Obvious 03:38
    13. Anytime You Fall 03:24

    08 • 2013 - На Краю (VBR V0) [46:07]

    Emin - "На Краю" (2013)
    01. Амор 03:32
    02. На Краю 03:46
    03. Звёзды Над Москвой 03:56
    04. Сон Не Про Нас 03:56
    05. Ангел Бес 04:22
    06. Не Ищи Меня 03:41
    07. Я Лучше Всех Живу 03:30
    08. Ты Не Одна 04:23
    09. Сердце Бьётся 03:22
    10. В Сентябре 03:34
    11. Лепестки Опавших Роз 03:20
    12. Синяя Вечность 04:40

    09 • 2014 - Amor (320 Kbps) [54:08]

    Emin - "Amor" (2014)
    01. In Another Life 03:19
    02. Hurt 04:09
    03. Not Alone 04:41
    04. Amor 03:38
    05. Sweetest Feeling 04:12
    06. Crawl 04:36
    07. Run 03:31
    08. The Game 03:09
    09. Tonight 03:26
    10. Last Forever 04:33
    11. Brighter 03:32
    12. Turn It Up Loud 06:41
    13. Coming Home 04:36

    Singles • Синглы:
    01 • 2011 - Falling (Thin Red Men Club Mix) (320 kbps) [06:24]

    Emin - "Falling (Thin Red Men Club Mix)" (2011)
    01. Falling (Thin Red Men Club Mix) 06:24

    02 • 2011 - Just for One Night (320 kbps) [13:23]

    Emin - "Just for One Night" (2011)
    01. Just For One Night (Radio Edit) 03:52
    02. Just For One Night (Almighty Radio Edit) 03:39
    03. Just For One Night (Almighty Club Mix) 05:51

    03 • 2011 - Obvius (320 kbps) [11:12]

    Emin - "Obvius" (2011)
    01. Obvious 03:37
    02. Just For One Night (Remix) 03:58
    03. Tell Me You'll Be Mine 03:37

    04 • 2011 - One Last Dance (Almighty Mixes) (320 kbps) [15:54]

    Emin - "One Last Dance (Almighty Mixes)" (2011)
    01. One Last Dance (Almighty Club Mix) 05:58
    02. One Last Dance (Almighty Dub) 05:58
    03. One Last Dance (Almighty Radio Edit) 03:57

    05 • 2012 - Baby Get Higher (320 kbps) [03:28]

    Emin - "Baby Get Higher" (2012)
    01. Baby Get Higher 03:28

    06 • 2012 - Baby Get Higher (Digital Dog Mixes) (256-320 kbps) [19:59]

    Emin - "Baby Get Higher (Digital Dog Mixes)" (2012)
    01. Baby Get Higher (Digital Dog Club Mix) 06:36
    02. Baby Get Higher (Digital Dog Radio Edit) 03:26
    03. Baby Get Higher (Seamus Haji Club Mix) 06:39
    04. Baby Get Higher (Seamus Haji Radio Edit) 03:17

    07 • 2012 - Never Enough (320 kbps) [11:18]

    Emin - "Never Enough" (2012)
    01. Never Enough 03:39
    02. Never Enough ( Eurovision Caspian Mix) 07:38

    08 • 2012 - Never Enough (Remixes Radio Edits) (320 kbps) [06:42]

    Emin - "Never Enough (Remixes Radio Edits)" (2012)
    01. Never Enough (Buzz Junkies Radio Edit) 03:02
    02. Never Enough (Moto Blanco Radio Edit) 03:39

    09 • 2012 - Walk through walls (192 kbps) [07:24]

    Emin - "Walk through walls" (2012)
    01. Walk Through Walls 03:48
    02. Walk Through Walls (Acoustic Version) 03:36

    10 • 2013 - Amor (320 kbps) [03:27]

    Emin - "Amor" (2013)
    01. Amor 03:52

    11 • 2013 - Amor - In Another Life (320 kbps) [06:57]

    Emin - "Amor - In Another Life" (2013)
    01. Amor 03:38
    02. In Another Life 03:19

    Emin - На краю (2013) MP3, ~317 кб

    Emin - На краю (2013) [MP3|

    Emin - На краю (2013) Год: 2013
    Страна: Azerbaijan / Russia / USA
    Жанр: Pop
    Продолжительность: 00:46:07

    Кодек: MP3
    Битрейт:

    317 кб/с
    Тип битрейта: VBR V0

    Треклист:
    01. Амор
    02. На краю
    03. Звёзды над Москвой
    04. Сон не про нас
    05. Ангел бес
    06. Не ищи меня
    07. Я лучше всех живу
    08. Ты не одна
    09. Сердце бьётся
    10. В сентябре
    11. Лепестки опавших роз
    12. Синяя вечность (feat. Муслим Магомаев)

    Первый русскоязычный альбом EMINa «На краю».

    Эмин Агаларов, коммерческий директор компании «Крокус Интернешнл», родился в Баку. Восемь лет проучился в Москве, затем еще пару лет - в частной швейцарской школе. В 15 лет переехал с родителями в США, где окончил школу и поступил в институт. Там же открыл свое первое дело — интернет-магазин и обувную лавку на Манхэттене. В 2001 году Эмин вернулся в Россию и то ли по просьбе, то ли по настоянию отца занял должность коммерческого директора «Крокус Сити Молла». Тогда Эмину был двадцать один год.\

    Мы живём в мире, всё больше похожем на то будущее, о котором cовсем недавно снимали пугающие футуристические фильмы - более технологичном, быстром, бездушном. Поэтому люди всё больше ощущают нехватку подлинных чувств и эмоций, которыми была так богата ранняя добрая англо - американская культура.

    Вновь востребованы настоящие певцы, такие как Тони Беннет, Пол Анка, Нил Даймонд, которые, казалось, уже были списаны с корабля современности, оснащенного новейшими компьютерными технологиями. Старые шлягеры в последние годы перепевают многие рок-и поп-певцы, от Брайна Ферри и Джорджа Майкла до Роял Джигалос и Бенни Бенасси, и это уже стало походить на настоящую моду.

    EMIN работает на этом же поле, используя чуть более жесткие аранжировки-красивым баритоном поёт он то, что всегда называлось love songs. EMIN же предпочитает называть этот стиль иначе: Сontemporary Rock Ballad (C.R.B.)

    EMIN обращается к творчеству своих любимых исполнителей Элвиса Пресли - впрямую, Френка Синатры и Адриано Челентано - опосредовано. Цель этого проекта носит от части просветительский характер, ведь над альбомом работала большая команда высокопрофессиональных музыкантов во главе с продюсером и аранжировщиком Владимиром Рацкевичем, создателем первых, теперь уже легендарных, московских рок-групп «Рубиновая Атака», «Високосное Лето» и «Цитадель», а позднее авторитетного электронного экспериментатора - «Вектор», «zoom.ra».

    Половина номеров альбома - это кавер версии песен из репертуара Элвиса Пресли, в том числе таких, как «Welcome To My World» и песня «Until Its Time For You To Go» североамериканской индейской фолк-певицы Баффи Сейнт - Мари, ставшей в начале 70-х большим хитом в исполнении Короля. Автор другой половины песен EMIN. Песни написаны на английском языке, которым EMIN владеет безупречно. Направление и настроение задаётся первым же треком - ностальгической балладой, давшей название всему альбому - Still.

    Альбом завершается удачным «выходом» - ритмичной композицией с испанским колоритом «Tonight», чье более электронное звучание уравновешивается гитарой в стиле фламенко. Страстное увлечение музыкой, которое занимает большую часть жизни, EMIN привёз из Америки. Там наряду с обучением в университете он приобрёл уникальный опыт и исполнительское мастерство, выступая в клубах Нью-Йорка и Нью-Джерси. Welcome to EMIN music world!


    Общее
    Полное имя : C:\Users\PASHA\Desktop\Emin - На краю (2014)\01. Амор.mp3
    Формат : MPEG Audio
    Размер файла : 8,35 Мбайт
    Продолжительность : 3 м. 32 с.
    Режим общего битрейта : Переменный
    Общий поток : 316 Кбит/сек
    Альбом : На Краю
    Альбом/Исполнитель : Emin
    Часть/Положение : 1
    Часть/Всего : 1
    Трек : Амор
    Трек/Положение : 01
    Трек/Всего : 12
    Исполнитель : Emin
    Жанр : Pop
    Дата записи : 2013
    Библиотека кодирования : LAME3.99r
    Обложка : Yes
    Тип обложки : Cover (front)
    MIME-тип обложки : image/jpeg
    DISCNUMBER : 1/1
    ALBUMARTIST : Emin
    COVER ART (FRONT) : Cover Art (Front).jpg

    Аудио
    Формат : MPEG Audio
    Версия формата : Version 1
    Профиль формата : Layer 3
    Режим : Joint stereo
    Расширение режима : MS Stereo
    Продолжительность : 3 м. 32 с.
    Вид битрейта : Переменный
    Битрейт : 316 Кбит/сек
    Каналы : 2 канала
    Частота : 44,1 КГц
    Метод сжатия : С потерями
    Размер потока : 8,01 Мбайт (96%)
    Библиотека кодирования : LAME3.99r
    Настройки программы : -m j -V 2 -q 0 -lowpass 18.5 --vbr-new

    Общее
    Полное имя : C:\Users\PASHA\Desktop\Emin - На краю (2014)\02. На краю.mp3
    Формат : MPEG Audio
    Размер файла : 8,90 Мбайт
    Продолжительность : 3 м. 46 с.
    Режим общего битрейта : Переменный
    Общий поток : 317 Кбит/сек
    Альбом : На Краю
    Альбом/Исполнитель : Emin
    Часть/Положение : 1
    Часть/Всего : 1
    Трек : На Краю
    Трек/Положение : 02
    Трек/Всего : 12
    Исполнитель : Emin
    Жанр : Pop
    Дата записи : 2013
    Библиотека кодирования : LAME3.99r
    Обложка : Yes
    Тип обложки : Cover (front)
    MIME-тип обложки : image/jpeg
    DISCNUMBER : 1/1
    ALBUMARTIST : Emin
    COVER ART (FRONT) : Cover Art (Front).jpg

    Аудио
    Формат : MPEG Audio
    Версия формата : Version 1
    Профиль формата : Layer 3
    Режим : Joint stereo
    Продолжительность : 3 м. 46 с.
    Вид битрейта : Переменный
    Битрейт : 317 Кбит/сек
    Каналы : 2 канала
    Частота : 44,1 КГц
    Метод сжатия : С потерями
    Размер потока : 8,56 Мбайт (96%)
    Библиотека кодирования : LAME3.99r
    Настройки программы : -m j -V 2 -q 0 -lowpass 18.5 --vbr-new

    Общее
    Полное имя : C:\Users\PASHA\Desktop\Emin - На краю (2014)\03. Звёзды над Москвой.mp3
    Формат : MPEG Audio
    Размер файла : 9,28 Мбайт
    Продолжительность : 3 м. 56 с.
    Режим общего битрейта : Переменный
    Общий поток : 317 Кбит/сек
    Альбом : На Краю
    Альбом/Исполнитель : Emin
    Часть/Положение : 1
    Часть/Всего : 1
    Трек : Звёзды Над Москвой
    Трек/Положение : 03
    Трек/Всего : 12
    Исполнитель : Emin
    Жанр : Pop
    Дата записи : 2013
    Библиотека кодирования : LAME3.99r
    Обложка : Yes
    Тип обложки : Cover (front)
    MIME-тип обложки : image/jpeg
    DISCNUMBER : 1/1
    ALBUMARTIST : Emin
    COVER ART (FRONT) : Cover Art (Front).jpg

    Аудио
    Формат : MPEG Audio
    Версия формата : Version 1
    Профиль формата : Layer 3
    Режим : Joint stereo
    Продолжительность : 3 м. 56 с.
    Вид битрейта : Переменный
    Битрейт : 317 Кбит/сек
    Каналы : 2 канала
    Частота : 44,1 КГц
    Метод сжатия : С потерями
    Размер потока : 8,94 Мбайт (96%)
    Библиотека кодирования : LAME3.99r
    Настройки программы : -m j -V 2 -q 0 -lowpass 18.5 --vbr-new

    Общее
    Полное имя : C:\Users\PASHA\Desktop\Emin - На краю (2014)\04. Сон не про нас.mp3
    Формат : MPEG Audio
    Размер файла : 9,27 Мбайт
    Продолжительность : 3 м. 56 с.
    Режим общего битрейта : Переменный
    Общий поток : 317 Кбит/сек
    Альбом : На Краю
    Альбом/Исполнитель : Emin
    Часть/Положение : 1
    Часть/Всего : 1
    Трек : Сон Не Про Нас
    Трек/Положение : 04
    Трек/Всего : 12
    Исполнитель : Emin
    Жанр : Pop
    Дата записи : 2013
    Библиотека кодирования : LAME3.99r
    Обложка : Yes
    Тип обложки : Cover (front)
    MIME-тип обложки : image/jpeg
    DISCNUMBER : 1/1
    ALBUMARTIST : Emin
    COVER ART (FRONT) : Cover Art (Front).jpg

    Аудио
    Формат : MPEG Audio
    Версия формата : Version 1
    Профиль формата : Layer 3
    Режим : Joint stereo
    Продолжительность : 3 м. 56 с.
    Вид битрейта : Переменный
    Битрейт : 317 Кбит/сек
    Каналы : 2 канала
    Частота : 44,1 КГц
    Метод сжатия : С потерями
    Размер потока : 8,93 Мбайт (96%)
    Библиотека кодирования : LAME3.99r
    Настройки программы : -m j -V 2 -q 0 -lowpass 18.5 --vbr-new

    Общее
    Полное имя : C:\Users\PASHA\Desktop\Emin - На краю (2014)\05. Ангел бес.mp3
    Формат : MPEG Audio
    Размер файла : 10,3 Мбайт
    Продолжительность : 4 м. 22 с.
    Режим общего битрейта : Переменный
    Общий поток : 317 Кбит/сек
    Альбом : На Краю
    Альбом/Исполнитель : Emin
    Часть/Положение : 1
    Часть/Всего : 1
    Трек : Ангел Бес
    Трек/Положение : 05
    Трек/Всего : 12
    Исполнитель : Emin
    Жанр : Pop
    Дата записи : 2013
    Библиотека кодирования : LAME3.99r
    Обложка : Yes
    Тип обложки : Cover (front)
    MIME-тип обложки : image/jpeg
    DISCNUMBER : 1/1
    ALBUMARTIST : Emin
    COVER ART (FRONT) : Cover Art (Front).jpg

    Аудио
    Формат : MPEG Audio
    Версия формата : Version 1
    Профиль формата : Layer 3
    Режим : Joint stereo
    Продолжительность : 4 м. 22 с.
    Вид битрейта : Переменный
    Битрейт : 317 Кбит/сек
    Каналы : 2 канала
    Частота : 44,1 КГц
    Метод сжатия : С потерями
    Размер потока : 9,94 Мбайт (97%)
    Библиотека кодирования : LAME3.99r
    Настройки программы : -m j -V 2 -q 0 -lowpass 18.5 --vbr-new

    Общее
    Полное имя : C:\Users\PASHA\Desktop\Emin - На краю (2014)\06. Не ищи меня.mp3
    Формат : MPEG Audio
    Размер файла : 8,70 Мбайт
    Продолжительность : 3 м. 41 с.
    Режим общего битрейта : Переменный
    Общий поток : 317 Кбит/сек
    Альбом : На Краю
    Альбом/Исполнитель : Emin
    Часть/Положение : 1
    Часть/Всего : 1
    Трек : Не Ищи Меня
    Трек/Положение : 06
    Трек/Всего : 12
    Исполнитель : Emin
    Жанр : Pop
    Дата записи : 2013
    Библиотека кодирования : LAME3.99r
    Обложка : Yes
    Тип обложки : Cover (front)
    MIME-тип обложки : image/jpeg
    DISCNUMBER : 1/1
    ALBUMARTIST : Emin
    COVER ART (FRONT) : Cover Art (Front).jpg

    Аудио
    Формат : MPEG Audio
    Версия формата : Version 1
    Профиль формата : Layer 3
    Режим : Joint stereo
    Продолжительность : 3 м. 41 с.
    Вид битрейта : Переменный
    Битрейт : 317 Кбит/сек
    Каналы : 2 канала
    Частота : 44,1 КГц
    Метод сжатия : С потерями
    Размер потока : 8,35 Мбайт (96%)
    Библиотека кодирования : LAME3.99r
    Настройки программы : -m j -V 2 -q 0 -lowpass 18.5 --vbr-new

    Общее
    Полное имя : C:\Users\PASHA\Desktop\Emin - На краю (2014)\07. Я лучше всех живу.mp3
    Формат : MPEG Audio
    Размер файла : 8,30 Мбайт
    Продолжительность : 3 м. 30 с.
    Режим общего битрейта : Переменный
    Общий поток : 317 Кбит/сек
    Альбом : На Краю
    Альбом/Исполнитель : Emin
    Часть/Положение : 1
    Часть/Всего : 1
    Трек : Я Лучше Всех Живу
    Трек/Положение : 07
    Трек/Всего : 12
    Исполнитель : Emin
    Жанр : Pop
    Дата записи : 2013
    Библиотека кодирования : LAME3.99r
    Обложка : Yes
    Тип обложки : Cover (front)
    MIME-тип обложки : image/jpeg
    DISCNUMBER : 1/1
    ALBUMARTIST : Emin
    COVER ART (FRONT) : Cover Art (Front).jpg

    Аудио
    Формат : MPEG Audio
    Версия формата : Version 1
    Профиль формата : Layer 3
    Режим : Joint stereo
    Продолжительность : 3 м. 30 с.
    Вид битрейта : Переменный
    Битрейт : 317 Кбит/сек
    Каналы : 2 канала
    Частота : 44,1 КГц
    Метод сжатия : С потерями
    Размер потока : 7,96 Мбайт (96%)
    Библиотека кодирования : LAME3.99r
    Настройки программы : -m j -V 2 -q 0 -lowpass 18.5 --vbr-new

    Общее
    Полное имя : C:\Users\PASHA\Desktop\Emin - На краю (2014)\08. Ты не одна.mp3
    Формат : MPEG Audio
    Размер файла : 10,3 Мбайт
    Продолжительность : 4 м. 23 с.
    Режим общего битрейта : Переменный
    Общий поток : 317 Кбит/сек
    Альбом : На Краю
    Альбом/Исполнитель : Emin
    Часть/Положение : 1
    Часть/Всего : 1
    Трек : Ты Не Одна
    Трек/Положение : 08
    Трек/Всего : 12
    Исполнитель : Emin
    Жанр : Pop
    Дата записи : 2013
    Библиотека кодирования : LAME3.99r
    Обложка : Yes
    Тип обложки : Cover (front)
    MIME-тип обложки : image/jpeg
    DISCNUMBER : 1/1
    ALBUMARTIST : Emin
    COVER ART (FRONT) : Cover Art (Front).jpg

    Аудио
    Формат : MPEG Audio
    Версия формата : Version 1
    Профиль формата : Layer 3
    Режим : Joint stereo
    Продолжительность : 4 м. 23 с.
    Вид битрейта : Переменный
    Битрейт : 317 Кбит/сек
    Каналы : 2 канала
    Частота : 44,1 КГц
    Метод сжатия : С потерями
    Размер потока : 9,96 Мбайт (97%)
    Библиотека кодирования : LAME3.99r
    Настройки программы : -m j -V 2 -q 0 -lowpass 18.5 --vbr-new

    Общее
    Полное имя : C:\Users\PASHA\Desktop\Emin - На краю (2014)\09. Сердце бьётся.mp3
    Формат : MPEG Audio
    Размер файла : 7,98 Мбайт
    Продолжительность : 3 м. 22 с.
    Режим общего битрейта : Переменный
    Общий поток : 317 Кбит/сек
    Альбом : На Краю
    Альбом/Исполнитель : Emin
    Часть/Положение : 1
    Часть/Всего : 1
    Трек : Сердце Бьётся
    Трек/Положение : 09
    Трек/Всего : 12
    Исполнитель : Emin
    Жанр : Pop
    Дата записи : 2013
    Библиотека кодирования : LAME3.99r
    Обложка : Yes
    Тип обложки : Cover (front)
    MIME-тип обложки : image/jpeg
    DISCNUMBER : 1/1
    ALBUMARTIST : Emin
    COVER ART (FRONT) : Cover Art (Front).jpg

    Аудио
    Формат : MPEG Audio
    Версия формата : Version 1
    Профиль формата : Layer 3
    Режим : Joint stereo
    Расширение режима : MS Stereo
    Продолжительность : 3 м. 22 с.
    Вид битрейта : Переменный
    Битрейт : 317 Кбит/сек
    Каналы : 2 канала
    Частота : 44,1 КГц
    Метод сжатия : С потерями
    Размер потока : 7,64 Мбайт (96%)
    Библиотека кодирования : LAME3.99r
    Настройки программы : -m j -V 2 -q 0 -lowpass 18.5 --vbr-new

    Общее
    Полное имя : C:\Users\PASHA\Desktop\Emin - На краю (2014)\10. В сентябре.mp3
    Формат : MPEG Audio
    Размер файла : 8,45 Мбайт
    Продолжительность : 3 м. 34 с.
    Режим общего битрейта : Переменный
    Общий поток : 316 Кбит/сек
    Альбом : На Краю
    Альбом/Исполнитель : Emin
    Часть/Положение : 1
    Часть/Всего : 1
    Трек : В Сентябре
    Трек/Положение : 10
    Трек/Всего : 12
    Исполнитель : Emin
    Жанр : Pop
    Дата записи : 2013
    Библиотека кодирования : LAME3.99r
    Обложка : Yes
    Тип обложки : Cover (front)
    MIME-тип обложки : image/jpeg
    DISCNUMBER : 1/1
    ALBUMARTIST : Emin
    COVER ART (FRONT) : Cover Art (Front).jpg

    Аудио
    Формат : MPEG Audio
    Версия формата : Version 1
    Профиль формата : Layer 3
    Режим : Joint stereo
    Продолжительность : 3 м. 34 с.
    Вид битрейта : Переменный
    Битрейт : 316 Кбит/сек
    Каналы : 2 канала
    Частота : 44,1 КГц
    Метод сжатия : С потерями
    Размер потока : 8,10 Мбайт (96%)
    Библиотека кодирования : LAME3.99r
    Настройки программы : -m j -V 2 -q 0 -lowpass 18.5 --vbr-new

    Общее
    Полное имя : C:\Users\PASHA\Desktop\Emin - На краю (2014)\11. Лепестки опавших роз.mp3
    Формат : MPEG Audio
    Размер файла : 7,93 Мбайт
    Продолжительность : 3 м. 20 с.
    Режим общего битрейта : Переменный
    Общий поток : 317 Кбит/сек
    Альбом : На Краю
    Альбом/Исполнитель : Emin
    Часть/Положение : 1
    Часть/Всего : 1
    Трек : Лепестки Опавших Роз
    Трек/Положение : 11
    Трек/Всего : 12
    Исполнитель : Emin
    Жанр : Pop
    Дата записи : 2013
    Библиотека кодирования : LAME3.99r
    Обложка : Yes
    Тип обложки : Cover (front)
    MIME-тип обложки : image/jpeg
    DISCNUMBER : 1/1
    ALBUMARTIST : Emin
    COVER ART (FRONT) : Cover Art (Front).jpg

    Аудио
    Формат : MPEG Audio
    Версия формата : Version 1
    Профиль формата : Layer 3
    Режим : Joint stereo
    Продолжительность : 3 м. 20 с.
    Вид битрейта : Переменный
    Битрейт : 317 Кбит/сек
    Каналы : 2 канала
    Частота : 44,1 КГц
    Метод сжатия : С потерями
    Размер потока : 7,59 Мбайт (96%)
    Библиотека кодирования : LAME3.99r
    Настройки программы : -m j -V 2 -q 0 -lowpass 18.5 --vbr-new

    Общее
    Полное имя : C:\Users\PASHA\Desktop\Emin - На краю (2014)\12. Синяя вечность.mp3
    Формат : MPEG Audio
    Размер файла : 11,0 Мбайт
    Продолжительность : 4 м. 40 с.
    Режим общего битрейта : Переменный
    Общий поток : 319 Кбит/сек
    Альбом : На Краю
    Альбом/Исполнитель : Emin
    Часть/Положение : 1
    Часть/Всего : 1
    Трек : Синяя Вечность
    Трек/Положение : 12
    Трек/Всего : 12
    Исполнитель : Emin
    Жанр : Pop
    Дата записи : 2013
    Библиотека кодирования : LAME3.99r
    Обложка : Yes
    Тип обложки : Cover (front)
    MIME-тип обложки : image/jpeg
    DISCNUMBER : 1/1
    ALBUMARTIST : Emin
    COVER ART (FRONT) : Cover Art (Front).jpg

    Аудио
    Формат : MPEG Audio
    Версия формата : Version 1
    Профиль формата : Layer 3
    Режим : Joint stereo
    Расширение режима : MS Stereo
    Продолжительность : 4 м. 40 с.
    Вид битрейта : Переменный
    Битрейт : 319 Кбит/сек
    Каналы : 2 канала
    Частота : 44,1 КГц
    Метод сжатия : С потерями
    Размер потока : 10,7 Мбайт (97%)
    Библиотека кодирования : LAME3.99r
    Настройки программы : -m j -V 2 -q 0 -lowpass 18.5 --vbr-new

    Общее
    Полное имя : C:\Users\PASHA\Desktop\Emin - На краю (2014)\cover.jpg
    Формат : JPEG
    Размер файла : 185 Кбайт

    Изображения
    Формат : JPEG
    Ширина : 800 пикселей
    Высота : 800 пикселей
    Цветовое пространство : YUV
    Субдискретизация насыщенности : 4:4:4
    Битовая глубина : 8 бит
    Метод сжатия : С потерями
    Размер потока : 185 Кбайт (100%)

    Время раздачи: Пн-Пт с 15:00 до 22:00