Софт-Архив

дэдпул торрент 1080 скачать

Рейтинг: 4.9/5.0 (314 проголосовавших)

Категория: Торрент-файлы

Описание

Скачать фильм Дэдпул

Скачать фильм Дэдпул / Deadpool (Тим Миллер) [2016, фантастика, фэнтези, боевик, комедия, приключения, BDRip 1080p] DUB [iTunes]+AVO - торрент

Скачать фильм бесплатно через торрент. Фильм доступен на нашем торрент-трекере бесплатно, без регистрации и смс.

Дэдпул торрент 1080 скачатьПеревод: Профессиональный (полное дублирование) iTunes

Субтитры: Русские, английские

Формат: BDRip, MKV, H.264, AC3

Страна: США, Канада

Режиссер: Тим Миллер

Дэдпул торрент 1080 скачать Дэдпул торрент 1080 скачать

8995 kbps, 0.243 bit/pixel

Аудио #1: Русский: 48 kHz, AC3 Dolby Digital, 6 ch,

384 kbps [Профессиональный (полное дублирование)]

Аудио #2: Русский: 48 kHz, AC3 Dolby Digital, 6 ch,

448 kbps [Авторский (одноголосый)] В.Гаевский Дэдпул торрент 1080 скачать

Аудио #3: Английский: 48 kHz, AC3 Dolby Digital, 6 ch,

448 kbps [Оригинал]

Уникальный идентификатор : 197482032165052602346089990731228580241 (0x9491A7EA89A8ECFA8A7A1D27DD5D0991)

Полное имя : D:FilmDeadpool.2016.BDRip.1080p.mkv

Версия формата : Version 2

Размер файла : 7,76 Гбайт

Продолжительность : 1 ч. 48 м.

Общий поток : 10,3 Мбит/сек

Название фильма : Deadpool.2016.BDRip.1080p

Дата кодирования : UTC 2016-04-28 09:27:58

Программа кодирования : mkvmerge v4.0.0 ('The Stars were mine') сборка от Jun 6 2010 16:18:42

Библиотека кодирования : libebml v1.0.0 + libmatroska v1.0.0

Формат/Информация : Advanced Video Codec

Профиль формата : High@L4.1

Параметр CABAC формата : Да

Параметр ReFrames формата : 5 кадров

Идентификатор кодека : V_MPEG4/ISO/AVC

Продолжительность : 1 ч. 48 м.

Битрейт : 8995 Кбит/сек

Ширина : 1920 пикселей

Высота : 804 пикселя

Соотношение сторон : 2,40:1

Режим частоты кадров : Постоянный

Частота кадров : 23,976 (23976/1000) кадра/сек

Цветовое пространство : YUV

Субдискретизация насыщенности : 4:2:0

Битовая глубина : 8 бит

Тип развёртки : Прогрессивная

Размер потока : 6,64 Гбайт (86%)

Заголовок : rip by -=walledol=-

Библиотека кодирования : x264 core 148 r2692 64f4e24

Настройки программы : cabac=1 / ref=5 / deblock=1:-3:-3 / analyse=0x3:0x133 / me=umh / subme=10 / psy=1 / psy_rd=1.00:0.15 / mixed_ref=1 / me_range=32 / chroma_me=1 / trellis=2 / 8x8dct=1 / cqm=0 / deadzone=21,11 / fast_pskip=0 / chroma_qp_offset=-3 / threads=6 / lookahead_threads=1 / sliced_threads=0 / nr=0 / decimate=1 / interlaced=0 / bluray_compat=0 / constrained_intra=0 / bframes=8 / b_pyramid=2 / b_adapt=2 / b_bias=0 / direct=3 / weightb=1 / open_gop=0 / weightp=2 / keyint=240 / keyint_min=23 / scenecut=40 / intra_refresh=0 / rc=2pass / mbtree=0 / bitrate=8995 / ratetol=1.0 / qcomp=0.60 / qpmin=0 / qpmax=69 / qpstep=4 / cplxblur=20.0 / qblur=0.5 / ip_ratio=1.40 / pb_ratio=1.30 / aq=1:0.80

Формат/Информация : Audio Coding 3

Расширение режима : CM (complete main)

Параметр Endianness формата : Big

Идентификатор кодека : A_AC3

Продолжительность : 1 ч. 48 м.

Вид битрейта : Постоянный

Битрейт : 384 Кбит/сек

Каналы : 6 каналов

Расположение каналов : Front: L C R, Side: L R, LFE

Частота : 48,0 КГц

Частота кадров : 31,250 кадров/сек (1536 spf)

Метод сжатия : С потерями

Размер потока : 297 Мбайт (4%)

Заголовок : DUB iTunes

Формат/Информация : Audio Coding 3

Расширение режима : CM (complete main)

Параметр Endianness формата : Big

Идентификатор кодека : A_AC3

Продолжительность : 1 ч. 48 м.

Вид битрейта : Постоянный

Битрейт : 448 Кбит/сек

Каналы : 6 каналов

Расположение каналов : Front: L C R, Side: L R, LFE

Частота : 48,0 КГц

Частота кадров : 31,250 кадров/сек (1536 spf)

Метод сжатия : С потерями

Размер потока : 347 Мбайт (4%)

Формат/Информация : Audio Coding 3

Расширение режима : CM (complete main)

Параметр Endianness формата : Big

Идентификатор кодека : A_AC3

Продолжительность : 1 ч. 48 м.

Вид битрейта : Постоянный

Битрейт : 448 Кбит/сек

Каналы : 6 каналов

Расположение каналов : Front: L C R, Side: L R, LFE

Частота : 48,0 КГц

Частота кадров : 31,250 кадров/сек (1536 spf)

Метод сжатия : С потерями

Размер потока : 347 Мбайт (4%)

Идентификатор кодека : S_TEXT/UTF8

Идентификатор кодека/Информация : UTF-8 Plain Text

Идентификатор кодека : S_TEXT/UTF8

Идентификатор кодека/Информация : UTF-8 Plain Text

Идентификатор кодека : S_TEXT/UTF8

Идентификатор кодека/Информация : UTF-8 Plain Text

дэдпул торрент 1080 скачать:

  • скачать
  • скачать
  • Другие статьи

    Дэдпул торрент 1080 скачать

    Дэдпул / Deadpool (2016) BDRip 1080p

    Дэдпул торрент 1080 скачать

    Оригинальное название: Deadpool

    Год выхода: 2016

    Жанр: Фантастика, боевик, триллер, приключения, комедия

    Режиссер: Тим Миллер

    В ролях: Райан Рейнольдс, Морена Баккарин, Джина Карано, ТиДжей Миллер, Эд Скрейн, Рэйчел Шин, Брианна Хилдебранд, Андре Трикоте, Тэйлор Хиксон, Джед Риис

    Студия: 20th Century Fox Film Corporation

    Перевод: Дублированный | iTunes

    Качество: BDRip 1080p

    Видео: 1920x808, 16732 Kbit/s, 23.976 fps

    Аудио #01: 48 kHz, AC3, 5.1, 384 Kbps | Дублированный, iTunes |

    Аудио #02: 48 kHz, AC3, 2.0, 192 Kbps | Авторский одноголосый (закадровый), В.Гаевский |

    Аудио #03: 48 kHz, AC3, 2.0, 384 Kbps | Дублированный, iTunes |

    Аудио #04: 48 kHz, DTS-ES, 6.1, 1510 kbps | Оригинал |

    Субтитры: Русские (forced,full), украинские (forced,full), английские (forced,full,SDH)

    Дэдпул скачать торрент в хорошем качестве бесплатно

    дэдпул торрент 1080 скачать

    Дэдпул торрент 1080 скачать

    Оригинальное название: Deadpool

    Слоган: «Стань свидетелем, как он кончит»

    Премьера в мире: 8 февраля 2016

    Дата выхода в России: 11 февраля 2016, «Двадцатый Век Фокс СНГ»

    Продолжительность: 108 мин. / 01:48

    Уэйд Уинстон Уилсон – наемный убийца, получивший прозвище Дэдпул. Идеальным наемником его сложно назвать – он нередко проваливает порученные ему задания. Чтобы скрыться от мести заказчиков, у Уилсона вошло в привычку изменять внешность пластическими операциями после очередного провала. Имея плохую наследственность (его мать умерла от рака), Уилсон не был удивлен, когда узнал о том, что тоже заболел этим смертельным недугом. Когда ему предложили участвовать в сверхсекретной правительственной программе США «Оружие Икс», он согласился в надежде излечиться от рака. Ученым, работающим над программой, удалось избавить Уилсона от болезни, но страшной ценой. Они использовали фактор исцеления, который по какой-то причине сросся с раковыми клетками. В результате эксперимента появился Дэдпул – мутант, получивший способность быстрой регенерации любой части своего тела, но с нестабильной психикой. Уилсон и рад бы держаться на плаву, но неустойчивое психическое состояние заставляет его совершать самые непредсказуемые поступки.

    Дэдпул торрент 1080 скачать

    Дэдпул / Deadpool (2016) BDRip 1080p | Лицензия, Гаевский

    Дэдпул торрент 1080 скачать

    ЗАМЕНА 17:06 08.05.2016 ЗВУК С ЛИЦЕНЗИИ + РИП КАЧЕСТВОМ ЛУЧШЕ!

    Год выпуска: 2016

    Страна: США, Канада

    Жанр: Фантастика, фэнтези, боевик, комедия, приключения

    Озвучивание: профессиональное, дублированное [iTunes] + профессиональное, одноголосое [Евгений Гаевский; авторский перевод без цензуры] + оригинал [английский]

    Режиссер: Тим Миллер

    В ролях: Райан Рейнольдс, Морена Баккарин, Джина Карано, ТиДжей Миллер, Эд Скрейн, Рэйчел Шин, Брианна Хилдебранд, Андре Трикоте, Тэйлор Хиксон, Джед Риис

    Сюжет: Уэйд Уилсон — наёмник. Будучи побочным продуктом программы вооружённых сил под названием «Оружие X», Уилсон приобрёл невероятную силу, проворство и способность к исцелению. Но страшной ценой: его клеточная структура постоянно меняется, а здравомыслие сомнительно. Всё, чего Уилсон хочет, — это держаться на плаву в социальной выгребной яме. Но течение в ней слишком быстрое.

    Примечание: Есть сцена после титров

    Дэдпул торрент 1080 скачать

    Качество: BDRip 1080p [полностью без рекламы]

    Видео: 16732 Kbit/s, 1919x798

    Аудио: DTS, 6 ch, 1510 kbps (дубляж)

    Аудио: AC3, 6 ch, 448 kbps (Гаевский)

    Аудио: AC3, ch, 448 kbps (дубляж)

    Аудио: DTS, 6 ch, 1510 kbps (оригинал)

    Субтитры: русские, украинские, английские

    Дэдпул торрент 1080 скачатьДэдпул торрент 1080 скачатьДэдпул торрент 1080 скачатьДэдпул торрент 1080 скачатьДэдпул торрент 1080 скачатьДэдпул торрент 1080 скачатьДэдпул торрент 1080 скачатьДэдпул торрент 1080 скачатьДэдпул торрент 1080 скачатьДэдпул торрент 1080 скачатьДэдпул торрент 1080 скачатьДэдпул торрент 1080 скачатьДэдпул торрент 1080 скачатьДэдпул торрент 1080 скачатьДэдпул торрент 1080 скачатьДэдпул торрент 1080 скачатьДэдпул торрент 1080 скачатьДэдпул торрент 1080 скачатьДэдпул торрент 1080 скачатьДэдпул торрент 1080 скачатьДэдпул торрент 1080 скачатьДэдпул торрент 1080 скачатьДэдпул торрент 1080 скачатьДэдпул торрент 1080 скачать

    Как скачивать если раздача заблокирована, Чтобы узнать переходим по ссылке: http://torrent-games.net/forum/9-62705-1#866995

    Раздача заблокирована на территории России по требованию правообладателя.

    Дэдпул (2016) HD 1080p скачать торрент в хорошем качестве

    Дэдпул (2016) HD 1080p торрент

    Дэдпул торрент 1080 скачать

    Год выхода: 2016

    Жанр: фантастика, боевик, комедия, приключения

    Режиссер: Тим Миллер

    Выпущено: США, Канада

    В ролях: Райан Рейнольдс, Морена Баккарин, Эд Скрейн, ТиДжей Миллер, Джина Карано, Брианна Хилдебранд, Стефан Капичич, Лесли Уггэмс, Джед Риис, Каран Сони, Майкл Беняер, Стайл Дэйн, Кайл Кэсси, Тэйлор Хиксон, Айзи, Наика Туссэн, Рендал Ридер, Айзек С. Синглтон мл., Джастин Шиппелт, Донна Ямамото

    Уэйд Уилсон — наёмник. Будучи побочным продуктом программы вооружённых сил под названием «Оружие X», Уилсон приобрёл невероятную силу, проворство и способность к исцелению. Но страшной ценой: его клеточная структура постоянно меняется, а здравомыслие сомнительно. Всё, чего Уилсон хочет, — это держаться на плаву в социальной выгребной яме. Но течение в ней слишком быстрое.

    Качество: BDRip 1080p (исходник Blu-ray Disc)

    Видео: 1920x804, 9184 Кбит/сек, 23,976 кадр/сек, AVC, x264, High@L4.1, 2.40:1, 0.248 Бит/[Пиксели*Кадры]

    Аудио 1: AC-3, 448 Кбит/сек, 6 канала(ов), 48,0 КГц - Дублированный / Русский

    Аудио 2: AC-3, 640 Кбит/сек, 6 канала(ов), 48,0 КГц - Оригинал / Английский

    Субтитры: Русские | Полные, Английские | Полные

    Форсированные субтитры: Русские

    Чаптеры (Главы): Есть

    Дэдпул торрент 1080 скачать Дэдпул торрент 1080 скачать Дэдпул торрент 1080 скачать Дэдпул торрент 1080 скачать

    Format version : Version 2

    File size : 7.75 GiB

    Duration : 1h 48mn

    Overall bit rate : 10.3 Mbps

    Movie name : Deadpool.(2016).BDRip.1080p.[envy]

    Encoded date : UTC 2016-05-11 13:44:52

    Writing application : mkvmerge v5.8.0 ('No Sleep / Pillow') built on Sep 2 2012 15:37:04

    Writing library : libebml v1.2.3 + libmatroska v1.3.0

    Format/Info : Advanced Video Codec

    Format profile : High@L4.1

    Format settings, CABAC : Yes

    Format settings, ReFrames : 5 frames

    Codec ID : V_MPEG4/ISO/AVC

    Duration : 1h 48mn

    Bit rate : 9 184 Kbps

    Width : 1 920 pixels

    Height : 804 pixels

    Display aspect ratio : 2.40:1

    Frame rate mode : Constant

    Frame rate : 23.976 (24000/1001) fps

    Color space : YUV

    Chroma subsampling : 4:2:0

    Bit depth : 8 bits

    Scan type : Progressive

    Stream size : 6.78 GiB (87%)

    Writing library : x264 core 148 r2692 64f4e24

    Encoding settings : cabac=1 / ref=5 / deblock=1:-3:-2 / analyse=0x3:0x133 / me=umh / subme=11 / psy=1 / psy_rd=1.00:0.00 / mixed_ref=1 / me_range=32 / chroma_me=1 / trellis=2 / 8x8dct=1 / cqm=0 / deadzone=21,11 / fast_pskip=0 / chroma_qp_offset=-2 / threads=12 / lookahead_threads=2 / sliced_threads=0 / nr=0 / decimate=1 / interlaced=0 / bluray_compat=0 / constrained_intra=0 / bframes=8 / b_pyramid=2 / b_adapt=2 / b_bias=0 / direct=3 / weightb=1 / open_gop=0 / weightp=2 / keyint=240 / keyint_min=23 / scenecut=40 / intra_refresh=0 / rc=2pass / mbtree=0 / bitrate=9184 / ratetol=2.0 / qcomp=0.60 / qpmin=0 / qpmax=69 / qpstep=4 / cplxblur=20.0 / qblur=0.5 / ip_ratio=1.40 / pb_ratio=1.30 / aq=2:0.70

    Format/Info : Audio Coding 3

    Mode extension : CM (complete main)

    Format settings, Endianness : Big

    Codec ID : A_AC3

    Duration : 1h 48mn

    Bit rate mode : Constant

    Bit rate : 448 Kbps

    Channel(s) : 6 channels

    Channel positions : Front: L C R, Side: L R, LFE

    Sampling rate : 48.0 KHz

    Frame rate : 31.250 fps (1536 spf)

    Compression mode : Lossy

    Stream size : 346 MiB (4%)

    Format/Info : Audio Coding 3

    Mode extension : CM (complete main)

    Format settings, Endianness : Big

    Codec ID : A_AC3

    Duration : 1h 48mn

    Bit rate mode : Constant

    Bit rate : 640 Kbps

    Channel(s) : 6 channels

    Channel positions : Front: L C R, Side: L R, LFE