Софт-Архив

скачать торрент фильм полигон 27

Рейтинг: 4.4/5.0 (153 проголосовавших)

Категория: Торрент-файлы

Описание

Скачать торрент Полигон 27 (2013

Полигон 27

Скачать торрент фильм полигон 27

Название: Полигон 27

Год выхода: 2013

Жанр: Фантастика, постапокалипсис

Режиссёр: Артем Мирошин

В ролях: Виктория Зогий, Никита Мокиев, Егор Медведев, Дмитрий Олейник, Олег Рябков, Олег Марков, Игорь Файман, Алексей Ганзей, Влад Миллер, Максим Перминов

Мир, переживший ядерную катастрофу. Среди руин старого города было возведено убежище «Новый Хабаровск». В руках молодого парня и девушки оказывается ценная информация о местонахождении технологий, способных восстановить экологию планеты. Оставшись без помощи и поддержки, паре предстоит отправиться в путешествие к этому месту и раскрыть заговор, нависший над городом.

Перевод: Не требуется (оригинальный)

Качество: WEBDLRip (WEBDL.1080)

Видео: XviD, 720х304, 23.976fps, 2399kbps

Аудио: AC3 Dolby Digital, 2ch, 44100Hz, 192kbps

скачать торрент фильм полигон 27:

  • скачать
  • скачать
  • Другие статьи

    Скачать фильм Полигон 27 (2013) через торрент

    Скачать фильм Полигон 27 (Артем Мирошин) / [2013, боевик, фантастика, постапокалипсис, WEB-DLRip] - торрент

    Нажмите на синюю кнопку, чтобы скачать фильм через торрент бесплатно. Фильм доступен на нашем торрент-трекере бесплатно, без регистрации и смс.

    Скачать торрент фильм полигон 27Формат: WEB-DLRip, AVI, XviD, AC3

    Режиссер: Артем Мирошин

    2399 kbps avg, 0.46 bit/pixel

    Аудио: 44.1 kHz, AC3 Dolby Digital, 2/0 (L,R) ch,

    Скачать торрент фильм полигон 27

    Скачать торрент фильм полигон 27

    Скачать торрент фильм полигон 27

    Скачать торрент фильм полигон 27

    Скачать торрент фильм полигон 27

    Скачать торрент фильм полигон 27

    Скачать торрент фильм полигон 27

    Информация о торренте:

    Скачан: 2760 раз

    Статус: Проверен Зарегистрирован на трекере: 2016-12-25 02:28

    Полигон 27 (2013) скачать фильм через торрент бесплатно

    Полигон 27 (2013)

    Режиссер: Артем Мирошин

    В главных ролях: Виктория Зогий,Никита Мокиев,Егор Медведев,Дмитрий Олейник,Олег Рябков,Олег Марков,Игорь Файман,Алексей Ганзей,Влад Миллер,Максим Перминов.

    Жанр: боевик, драма

    Продолжительность: 80 мин.

    Скачать торрент фильм полигон 27

    Скачать торрент Полигон 27 (2013)

    Видео: XviD, 1174 kbps, 640х272

    Аудио дорожка #1: русский, Оригинальное, MP3, 128 kbps

    Скачать торрент фильм полигон 27Скачать торрент фильм полигон 27Скачать торрент фильм полигон 27Скачать торрент фильм полигон 27

    Видео: XviD, 2399 kbps, 720х304

    Аудио дорожка #1: русский, Оригинальное, AC3 2.0, 192 kbps

    Полигон 27 (2013) WEBDLRip - Скачать торрент

    скачать торрент фильм полигон 27

    Информация о фильме

    Жанр: Фантастика, постапокалипсис

    В ролях: Виктория Зогий, Никита Мокиев, Егор Медведев, Дмитрий Олейник, Олег Рябков, Олег Марков, Игорь Файман, Алексей Ганзей, Влад Миллер, Максим Перминов

    О фильме: Постядерный мир. Среди руин старого города возвышается город — убежище «Новый Хабаровск». В руки молодого парня и девушки попадает важная информация о местоположении технологий, с помощью которых можно восстановить экологию планеты. Оставшись без помощи и поддержки, они вынуждены совершить путешествие к этому месту и раскрыть заговор нависший над городом.

    Перевод: Не требуется (оригинальный)

    Видео: XviD, 720х304, 23.976fps, 2399kbps

    Аудио: AC3 Dolby Digital, 2ch, 44100Hz, 192kbps

    Полное имя : Poligon.27.2013.O.WEBDLRip.1400.CurHaJI.avi

    Формат/Информация : Audio Video Interleave

    Размер файла : 1,44 Гбайт

    Продолжительность : 1 ч. 19 м.

    Общий поток : 2601 Кбит/сек

    Название фильма : Poligon.27.2013.O.WEBDLRip.1400.CurHaJI

    Программа кодирования : VirtualDubMod 1.5.10.3 | www.virtualdub-fr.org || (build 2550/release)

    Библиотека кодирования : VirtualDub build 35491/release

    Формат : MPEG-4 Visual

    Профиль формата : Advanced Simple@L5

    Параметр BVOP формата : 1

    Параметр QPel формата : Нет

    Параметр GMC формата : Без точки перехода

    Параметр матрицы формата : Выборочная

    Идентификатор кодека : XVID

    Идентификатор кодека/Подсказка : XviD

    Продолжительность : 1 ч. 19 м.

    Битрейт : 2399 Кбит/сек

    Ширина : 720 пикселей

    Высота : 304 пикселя

    Соотношение сторон : 2,35:1

    Частота кадров : 23,976 (24000/1001) кадра/сек

    Цветовое пространство : YUV

    Субдискретизация насыщенности : 4:2:0

    Битовая глубина : 8 бит

    Тип развёртки : Прогрессивная

    Метод сжатия : С потерями

    Размер потока : 1,33 Гбайт (92%)

    Библиотека кодирования : XviD 73

    Формат/Информация : Audio Coding 3

    Расширение режима : CM (complete main)

    Параметр Endianness формата : Big

    Идентификатор кодека : 2000

    Продолжительность : 1 ч. 19 м.

    Вид битрейта : Постоянный

    Битрейт : 192 Кбит/сек

    Каналы : 2 канала

    Расположение каналов : Front: L R

    Частота : 44,1 КГц

    Частота кадров : 28,711 кадров/сек (1536 spf)

    Битовая глубина : 16 бит

    Метод сжатия : С потерями

    Размер потока : 109 Мбайт (7%)

    Выравнивание : Разделение по промежуткам

    Продолжительность промежутка : 42 мс. (1,00 видеокадр)

    Фильм Полигон 27 2013 скачать торрент

    скачать торрент фильм полигон 27 Фильм Полигон 27 2013 скачать торрент

    Коротко о фильме "Полигон 27" - Постядерный мир. Среди руин старого города возвышается город - убежище «Новый Хабаровск». В руки молодого парня и девушки попадает важная информация о местоположении технологий, с помощью которых можно восстановить экологию планеты. Оставшись без помощи и поддержки, они вынуждены совершить путешествие к этому месту и раскрыть заговор нависший над городом.

    Полигон 27

    Скачать торрент фильм полигон 27

    Фильм Полигон 27 скачать торрент - новинка кино 2013 бесплатно

    В фильме "Полигон 27" - в руки парня и девушки попадает важная информация, где найти технологии, которые помогут восстановить экологию планеты после ядерной катастрофы

    Смотрите фильм Полигон 27 онлайн:

    Скачать торрент файлы фильма Полигон 27:

    на сайте Вы можете получить ссылку на торрент файлы или скачать сами торрент файлы, в которых находится информация о местонахождении фильмов, сериалов у пользователей.