Софт-Архив

бременские музыканты мультфильм скачать торрент

Рейтинг: 4.4/5.0 (459 проголосовавших)

Категория: Торрент-файлы

Описание

Скачать мультфильм Бременские музыканты (1967) BDRip через торрент

Скачать мультфильм Бременские музыканты (Сборник мультфильмов) / [Ремастеринг](Инесса Ковалевская) [1967-1973, мультфильм, короткометражка, мюзикл, семейный, BDRip] - торрент

Скачать бесплатный торрент мультфильм. Мультфильм доступен на нашем торрент-трекере бесплатно, без регистрации и смс.

Бременские музыканты мультфильм скачать торрент

Перевод: Не требуется

Формат: BDRip, AVI, XviD, AC3

Режиссер: Инесса Ковалевская

"Ничего на свете лучше нету,

Чем бродить друзьям по белу свету,

Тем кто дружен не страшны тревоги,

Нам любые дороги дороги"

Музыкальная фантазия, любимая не одним поколением зрителей, о необыкновенных, очень опасных и веселых приключениях бременских музыкантов: Трубадура, кота, собаки, петуха и осла. Музыканты путешествуют по Германии времен братьев Гримм и поют вполне современные песни. Время от времени совершают подвиги. Все было хорошо, но во время одного циркового представления приглянулась нашему герою принцесса…

2354 Кбит/сек., 0.327 bit/pixel

Аудио: 48,0КГц, AC-3, 2ch,

1. Бременские музыканты (1969 г.)

2. По следам Бременских музыкантов (1973 г.)

3. Четверо с одного двора (1967 г.)

4. Катерок (1970 г.)

5. Однажды утром (1981 г.)

Полное имя : H:\видео\мультики\BREMEN_MUZ_BLUEBIRD.Title3.avi

Формат/Информация : Audio Video Interleave

Размер файла : 1,30 Гбайт

Продолжительность : 1 ч. 6 м.

Общий поток : 2812 Кбит/сек

Программа кодирования : VirtualDubMod 1.5.10.2 (build 2540/release)

Библиотека кодирования : VirtualDubMod build 2540/release

Формат : MPEG-4 Visual

Профиль формата : Advanced Simple@L5

Параметр BVOP формата : 1

Параметр QPel формата : Нет

Параметр GMC формата : Без точки перехода

Параметр матрицы формата : Default (H.263)

Идентификатор кодека : XVID

Идентификатор кодека/Подсказка : XviD

Продолжительность : 1 ч. 6 м.

Битрейт : 2354 Кбит/сек

Ширина : 720 пикселей

Высота : 544 пикселя

Соотношение сторон : 4:3

Частота кадров : 25,000 кадров/сек

Цветовое пространство : YUV

Субдискретизация насыщенности : 4:2:0

Битовая глубина : 8 бит

Тип развёртки : Прогрессивная

Метод сжатия : С потерями

Размер потока : 1,09 Гбайт (84%)

Библиотека кодирования : XviD 1.2.0.dev47 (UTC 2006-11-01)

Формат/Информация : Audio Coding 3

Расширение режима : CM (complete main)

Параметр Endianness формата : Big

Идентификатор кодека : 2000

Продолжительность : 1 ч. 6 м.

Вид битрейта : Постоянный

Битрейт : 448 Кбит/сек

Каналы : 2 канала

Расположение каналов : Front: L R

Частота : 48,0 КГц

Битовая глубина : 16 бит

Метод сжатия : С потерями

Размер потока : 211 Мбайт (16%)

Выравнивание : Разделение по промежуткам

Продолжительность промежутка : 40 мс. (1,00 видеокадр)

Время предзагрузки промежутка : 500 мс.

Бременские музыканты мультфильм скачать торрент

Бременские музыканты мультфильм скачать торрент

Бременские музыканты мультфильм скачать торрент

Бременские музыканты мультфильм скачать торрент

Бременские музыканты мультфильм скачать торрент

Бременские музыканты мультфильм скачать торрент

Информация о торренте:

Скачан: 20024 раза

Статус: Проверен Зарегистрирован на трекере: 2014-02-15 17:47

бременские музыканты мультфильм скачать торрент:

  • скачать
  • скачать
  • Другие статьи

    Скачать фильмы Бременские музыканты - ТОРРЕНТИНО - торрент трекер - бесплатно DVDRip

    Бременские музыканты / По следам бременских музыкантов (Инесса Ковалевская, Василий Ливанов / Мультфильм, мюзикл, семейный / 1969-1973) [DVDRip, Не требуется]

    Описание Бременские музыканты / По следам бременских музыкантов

    Год выпуска: 1969-1973

    Жанр: Мультфильм, мюзикл, семейный

    Режиссёр: Инесса Ковалевская (Бременские музыканты), Василий Ливанов (По следам бременских музыкантов)

    В ролях: Олег Анофриев, Геннадий Гладков, Анатолий Горохов, Муслим Магомаев, Эльмира Жерздева

    Перевод: Не требуется

    Описание: Бременские музыканты:

    Музыкальная фантазия, любимая не одним поколением зрителей, о необыкновенных, очень опасных и веселых приключениях бременских музыкантов: Трубадура, кота, собаки, петуха и осла. Музыканты путешествуют по Германии времен братьев Гримм и поют вполне современные песни. Время от времени совершают подвиги. Все было хорошо, но во время одного циркового представления приглянулась нашему герою принцесса…

    По следам бременских музыкантов:

    Король, желая вернуть во дворец свою дочь, нанимает опытного сыщика, который успешно выполняет задание. Но Трубадур и его верные друзья — осёл, пёс, кот и петух — спешат вызволить принцессу из золотой клетки.

    Видео кодек: XVID

    Аудио кодек: Audio Layer 3

    Видео: XVID, 720x540, 25.00 fps, 1750 Kbps

    Аудио: MPEG Audio Layer 3, 44.100 Hz, stereo, 128 Kbps

    Скачать Бременские музыканты

    Бременские музыканты. По следам бременских музыкантов (1969, 1973) HDRip

    Бременские музыканты мультфильм скачать торрент

    Бременские музыканты мультфильм скачать торрент

    Информация о фильме

    Название: Бременские музыканты

    Год выхода: 1969, 1973

    Жанр: Мультфильм, приключения, сказка

    Режиссер: Инесса Ковалевская

    Бременские музыканты мультфильм скачать торрент

    Перевод: Не требуется (оригинальный)

    Роли озвучивали: Олег Анофриев, Муслим Магомаев, Эльмира Жерздева, Анатолий Горохов, Геннадий Гладков, Леонид Бергер

    Качество: HDRip (BDRip.1080p)

    Видео: XviD, 720x544, 25fps, 2208kbps

    Аудио: AC3 Dolby Digital, 6ch, 48000Hz, 448kbps

    Complete name : Bremehskie.Muzykanty.1973.O.HDRip.700.CurHaJI.avi

    Format/Info : Audio Video Interleave

    File size : 746 MiB

    Duration : 39mn 8s

    Overall bit rate : 2 665 Kbps

    Movie name : Bremehskie.Muzykanty.1973.O.HDRip.700.CurHaJI

    Writing application : VirtualDubMod 1.5.10.3 | www.virtualdub-fr.org || (build 2550/release)

    Writing library : VirtualDub build 35491/release

    Format : MPEG-4 Visual

    Format profile : Advanced Simple@L5

    Format settings, BVOP : 2

    Format settings, QPel : No

    Format settings, GMC : No warppoints

    Format settings, Matrix : Custom

    Codec ID/Hint : XviD

    Duration : 39mn 8s

    Bit rate : 2 208 Kbps

    Width : 720 pixels

    Height : 544 pixels

    Display aspect ratio : 4:3

    Frame rate : 25.000 fps

    Color space : YUV

    Chroma subsampling : 4:2:0

    Bit depth : 8 bits

    Scan type : Progressive

    Compression mode : Lossy

    Stream size : 618 MiB (83%)

    Writing library : XviD 73

    Format/Info : Audio Coding 3

    Mode extension : CM (complete main)

    Format settings, Endianness : Big

    Duration : 39mn 8s

    Bit rate mode : Constant

    Bit rate : 448 Kbps

    Channel(s) : 6 channels

    Channel positions : Front: L C R, Side: L R, LFE

    Sampling rate : 48.0 KHz

    Bit depth : 16 bits

    Compression mode : Lossy

    Stream size : 125 MiB (17%)

    Alignment : Split accross interleaves

    Interleave, duration : 40 ms (1.00 video frame)

    Бременские музыканты (1969-1973) скачать через торрент на TOPTorrent в хорошем качестве бесплатно - мультфильмы в HD 1080 720 с ТопТоррента

    Бременские музыканты (1969-1973)

    Бременские музыканты мультфильм скачать торрент

    Бременские музыканты (1969-1973)

    Название: Бременские музыканты

    Жанр: мультфильм, короткометражка

    Режиссер: Инесса Ковалевская, Василий Ливанов

    В ролях: Олег Анофриев, Геннадий Гладков, Анатолий Горохов, Муслим Магомаев, Эльмира Жерздева

    О фильме: Музыкальная фантазия, любимая не одним поколением зрителей, о необыкновенных, очень опасных и веселых приключениях бременских музыкантов: Трубадура, кота, собаки, петуха и осла. Музыканты путешествуют по Германии времен братьев Гримм и поют вполне современные песни. Время от времени совершают подвиги. Все было хорошо, но во время одного циркового представления приглянулась нашему герою принцесса…

    Продолжительность: 2 мульта по

    Бременские музыканты и По следам бременских музыкантов (1969) смотреть онлайн или скачать мультфильм через торрент

    Бременские музыканты и По следам бременских музыкантов (1969)

    Дата выхода в России (или в Мире): 01.01.1969

    Вот уже более 30 лет музыкальная сказка о веселом Трубадуре и наивной Принцессе радует добрыми песнями. Незамысловатый сюжет о любви, дружбе, приключениях, но дети всех возрастов с удовольствием подпевают и Трубадуру, и совсем не страшным разбойникам и доблестным охранникам. Не менее увлекательна и вторая часть. Король скучает по своей дочери, и в дело включается гениальный Сыщик. Добрый шарж на Шерлока Холмса и "заграничных артистов", запоминающиеся тексты песен и счастливый конец обеспечивают популярность сказки даже у современных детей. А прекрасное качество воспроизведения позволяют смотреть фильм и на самом широком экране.© Fast-Torrent.ru

    Название фильма Название антологии

    15 Фев. 2011 12:18

    Для просмотра скриншотов нажмите на описание торрента!

    Бременские музыканты мультфильм скачать торрент Бременские музыканты мультфильм скачать торрент Бременские музыканты мультфильм скачать торрент Бременские музыканты мультфильм скачать торрент Бременские музыканты мультфильм скачать торрент Бременские музыканты мультфильм скачать торрент

    Фильмы похожие на Бременские музыканты и По следам бременских музыкантов

    Продолжительность: 2 x

    Видео кодек: H.26x

    Аудио кодек: AC3

    Видео: 960x720 (4:3), 25 fps, 6000 kbps

    Аудио: 6 ch, 448 kbps

    Видео кодек: XviD

    Аудио кодек: AC3

    Видео: XviD, 720x544, 25fps, 2208kbps

    Аудио: AC3 Dolby Digital, 6ch, 48000Hz, 448kbps

    Продолжительность: 2 х

    Видео кодек: MPEG-4

    Аудио кодек: AAC

    Видео: 499 Кбит/с, 320x240, 23.976 кадр/с

    Аудио: Русский (AAC, 2 ch, 128 Кбит/с)

    Видео кодек: XviD

    Аудио кодек: MP3

    Видео: 1750 kbps, 720x540, 25 fps

    Аудио: 128 kbps, 2 ch, 44,1 khz

    Видео кодек: H.26x

    Аудио кодек: AC3

    Видео: 1424х1072(4:3) , 9035 Кбит/сек, 23,976 кадр/сек, 0.237 bit/pixel

    Аудио: 48 kHz, AC3 Dolby Digital, 3/2 (L,C,R,l,r) + LFE ch,