Софт-Архив

ульзана скачать торрент

Рейтинг: 4.2/5.0 (110 проголосовавших)

Категория: Торрент-файлы

Описание

Скачать торрент Ульзана

Скачать Ульзана / Ulzana (Готтфрид Кольдиц) [1974, вестерн, приключения, DVDRip-AVC] DUB - торрент

Скачать через торрент бесплатно.

Ульзана скачать торрентПеревод: Профессиональный (полное дублирование), cубтитры: отсутствуют

Формат: DVDRip-AVC, MKV, H.264, AC3

Страна: Германия, Румыния

Режиссер: Готтфрид Кольдиц

Аризона, конец сороковых годов 19-го столетия. Индейцы племени мимбреньо стали земледельцами, они построили оросительное сооружение и празднуют свой первый праздник урожая. Урожай выдался богатый, и они собираются продать излишки. Торговцы из Тусона и белые поселенцы боятся лишиться своих прибылей -особенно же люди из «Тусонской компании», которые кладут в свой карман деньги, выделяемые правительством для снабжения индейцев, а им продают испорченное продовольствие. Они переходят в наступление и взрывают оросительное сооружение. Вождь Ульзана ранен, белые считают его погибшим и собираются загнать индейцев мимбреньо в бесплодную резервацию. Индейцы сбегают в Мексику, в горы Сьерра Мадре, но жена Ульзаны, Леона, попадает в руки солдатам.

Ульзана скачать торрент

2256 kbps avg, 0.373 bit/pixel

Аудио: 48 kHz, АС3, 2 ch, Front: L R

192.00 kbps avg [Дублированный (CCCР)]

Полное имя : C:\Ulzana.1974.DVDRip-AVC_[rutracker.org]_by_Deerhoof.mkv

Версия формата : Version 2

Размер файла : 1,46 Гбайт

Продолжительность : 1 ч. 25 м.

Общий поток : 2450 Кбит/сек

Название фильма : Ulzana.1974

Дата кодирования : UTC 2012-10-31 19:35:30

Программа кодирования : mkvmerge v5.6.0 ('Kenya Kane') built on May 27 2012 16:44:04

Библиотека кодирования : libebml v1.2.3 + libmatroska v1.3.0

Формат/Информация : Advanced Video Codec

Профиль формата : High@L4.1

Параметр CABAC формата : Да

Параметр ReFrames формата : 10 кадров

Идентификатор кодека : V_MPEG4/ISO/AVC

Продолжительность : 1 ч. 25 м.

Битрейт : 2256 Кбит/сек

Ширина : 700 пикселей

Высота : 346 пикселей

Соотношение сторон : 2,2:1

Соотношение сторон в оригинале : 2,2:1

Частота кадров : 25,000 кадров/сек

Цветовое пространство : YUV

Субдискретизация насыщенности : 4:2:0

Битовая глубина : 8 бит

Тип развёртки : Прогрессивная

Размер потока : 1,32 Гбайт (90%)

Библиотека кодирования : x264 core 116 r2074 2641b9e

Настройки программы : cabac=1 / ref=10 / deblock=1:-2:-1 / analyse=0x3:0x133 / me=umh / subme=11 / psy=1 / psy_rd=1.00:0.05 / mixed_ref=1 / me_range=48 / chroma_me=1 / trellis=2 / 8x8dct=1 / cqm=0 / deadzone=21,11 / fast_pskip=0 / chroma_qp_offset=-3 / threads=6 / sliced_threads=0 / nr=0 / decimate=1 / interlaced=0 / bluray_compat=0 / constrained_intra=0 / bframes=9 / b_pyramid=2 / b_adapt=2 / b_bias=0 / direct=3 / weightb=1 / open_gop=0 / weightp=2 / keyint=250 / keyint_min=25 / scenecut=40 / intra_refresh=0 / rc_lookahead=80 / rc=2pass / mbtree=1 / bitrate=2256 / ratetol=1.0 / qcomp=0.60 / qpmin=0 / qpmax=69 / qpstep=4 / cplxblur=20.0 / qblur=0.5 / ip_ratio=1.40 / aq=2:0.90

Основные цвета : BT.709-5, BT.1361, IEC 61966-2-4, SMPTE RP177

Характеристики трансфера : BT.709-5, BT.1361

Коэффициенты матрицы : BT.709-5, BT.1361, IEC 61966-2-4 709, SMPTE RP177

Формат/Информация : Audio Coding 3

Расширение режима : CM (complete main)

Идентификатор кодека : A_AC3

Продолжительность : 1 ч. 25 м.

Вид битрейта : Постоянный

Битрейт : 192 Кбит/сек

Каналы : 2 канала

Расположение каналов : Front: L R

Частота : 48,0 КГц

Битовая глубина : 16 бит

Метод сжатия : С потерями

Размер потока : 117 Мбайт (8%)

Заголовок : Профессиональный (полное дублирование)

00:00:00.000 : :Chapter 01

00:04:15.000 : :Chapter 02

00:14:15.000 : :Chapter 03

00:24:15.000 : :Chapter 04

00:34:15.000 : :Chapter 05

00:44:15.000 : :Chapter 06

00:54:15.000 : :Chapter 07

01:04:15.000 : :Chapter 08

01:14:15.000 : :Chapter 09

Ульзана скачать торрент

Ульзана скачать торрент

Ульзана скачать торрент

Ульзана скачать торрент

Ульзана скачать торрент

Ульзана скачать торрент

Информация о торренте:

Скачан: 1265 раз

Статус: Проверен Зарегистрирован на трекере: 2013-09-14 11:44

ульзана скачать торрент:

  • скачать
  • скачать
  • Другие статьи

    Скачать фильмы Ульзана - ТОРРЕНТИНО - торрент трекер - бесплатно DVDRip

    Ульзана / Ulzana (1974) DVDRip

    Информация о фильме

    Режиссер: Готфрид Кольдитц

    В ролях: Гойко Митич, Рената Блюме, Рольф Хоппе, Коль Рауту, Амза Пеля, Фред Делмар

    Аризона, конец сороковых годов 19-го столетия. Индейцы племени мимбреньо стали земледельцами, они построили оросительное сооружение и празднуют свой первый праздник урожая. Урожай выдался богатый, и они собираются продать излишки. Торговцы из Тусона и белые поселенцы боятся лишиться своих прибылей -особенно же люди из «Тусонской компании», которые кладут в свой карман деньги, выделяемые правительством для снабжения индейцев, а им продают испорченное продовольствие. Они переходят в наступление и взрывают оросительное сооружение. Вождь Ульзана ранен, белые считают его погибшим и собираются загнать индейцев мимбреньо в бесплодную резервацию. Индейцы сбегают в Мексику, в горы Сьерра Мадре, но жена Ульзаны, Леона, попадает в руки солдатам.

    Год выхода: 1974

    Выпущено: СССР, Румыния, Германия (ГДР)

    Перевод: Дублированный (СССР)

    Жанр: Вестерн ,приключения ,боевик ,военный

    Ульзана скачать торрент

    Ульзана / Ulzana (1974) BDRip | D | Советский дубляж

    Ульзана скачать торрент

    Оригинальное название: Ulzana

    Год выхода: 1974

    Режиссер: Готтфрид Кольдиц

    В ролях: Гойко Митич, Ренате Блюме, Рольф Хоппе, Коля Рэуту, Амза Пелля, Фред Дельмаре, Альфред Штруве, Дорел Якобеску, Дину Герасим, Дан Сандулеску, Ханньо Хассе

    Аризона, конец сороковых годов 19-го столетия. Индейцы племени мимбреньо стали земледельцами, они построили оросительное сооружение и празднуют свой первый праздник урожая. Урожай выдался богатый, и они собираются продать излишки.

    Студия: Bucaresti Film, Киностудия Дефа, Мосфильм

    Перевод: Полное дублирование [Советский дубляж + вставки Ю.Сербина]

    Качество: BDRip (исх. Ulzana (1974) Blu-ray [Custom] 1080i AVC DD2.0 )

    Видео: 720x304 (2,35:1), 25 fps, XviD

    2101 kbps avg, 0.384 bit/pixel

    Звук: 48 kHz, AC3, 2 ch,

    192.00 kbps avg | русский | Профессиональный (полное дублирование)[Советский дубляж + вставки Ю.Сербина]

    Ульзана скачать торрент

    Ульзана / Ulzana (1974) BDRip [H.264/720р-LQ]

    Ульзана скачать торрент

    Жанр: Приключения, Вестерн

    Актеры: Гойко Митич, Рената Блюме, Рольф Хоппе, Коля Рэуту, Амза Пелля, Фред Дельмаре, Альфред Штруве, Дорел Якобеску, Дину Герасим, Дан Сандулеску

    Аризона, конец сороковых годов 19-го столетия. Индейцы племени мимбреньо стали земледельцами, они построили оросительное сооружение и празднуют свой первый праздник урожая. Урожай выдался богатый, и они собираются продать излишки.

    Торговцы из Тусона и белые поселенцы боятся лишиться своих прибылей, особенно же люди из «Тусонской компании», которые кладут в свой карман деньги, выделяемые правительством для снабжения индейцев, а им продают испорченное продовольствие. Они переходят в наступление и взрывают оросительное сооружение. Вождь Ульзана ранен, белые считают его погибшим и собираются загнать индейцев мимбреньо в бесплодную резервацию.

    Индейцы сбегают в Мексику, в горы Сьерра Мадре, но жена Ульзаны, Леона, попадает в руки солдатам.

    Качество видео: BDRip

    Перевод: Дублированный (с вставками Ю.Сербина на непереведённые сцены)

    Аудио 1: Русский, AC3, 2 ch, 192 Kbps, 48.0 kHz

    Аудио 2: Немецкий, AC3, 2 ch, 192 Kbps, 48.0 kHz

    Ульзана скачать торрент

    Ульзана / Ulzana (1974) DVDRip

    Ульзана скачать торрент

    Ульзана скачать торрент

    Режиссер: Готфрид Кольдитц

    В ролях: Гойко Митич, Рената Блюме, Рольф Хоппе, Коль Рауту, Амза Пеля, Фред Делмар

    Аризона, конец сороковых годов 19-го столетия. Индейцы племени мимбреньо стали земледельцами, они построили оросительное сооружение и празднуют свой первый праздник урожая. Урожай выдался богатый, и они собираются продать излишки. Торговцы из Тусона и белые поселенцы боятся лишиться своих прибылей -особенно же люди из «Тусонской компании», которые кладут в свой карман деньги, выделяемые правительством для снабжения индейцев, а им продают испорченное продовольствие. Они переходят в наступление и взрывают оросительное сооружение. Вождь Ульзана ранен, белые считают его погибшим и собираются загнать индейцев мимбреньо в бесплодную резервацию. Индейцы сбегают в Мексику, в горы Сьерра Мадре, но жена Ульзаны, Леона, попадает в руки солдатам.

    Выпущено: СССР, Румыния, Германия (ГДР)