Софт-Архив

программу для чип тюнинга скачать

Рейтинг: 4.8/5.0 (355 проголосовавших)

Категория: Программы

Описание

Программы для чип-тюнинга - Мобильный - Powered by Discuz!

Программу для чип тюнинга скачать OpenDiagFlasher

Аноним - 12-2-2015 700

Программу для чип тюнинга скачать EcuSafe 2.0

BMWtin - 21-12-2014 14

Программу для чип тюнинга скачать Онлайн редактор прошивок!

alex258090 - 30-1-2016 229

Программу для чип тюнинга скачать ECM Titanium

Mat - 27-2-2015 259

Программу для чип тюнинга скачать WinOLS_2.26

Mat - 22-1-2015 157

Программу для чип тюнинга скачать ChipLoader 1.97.7 + crack

Mat - 5-1-2015 296

Программу для чип тюнинга скачать KIA FLASHER для Windows 7

djokean007 - 9-4-2015 24

Программу для чип тюнинга скачать OpenBox3.19

djokean007 - 9-4-2015 341

Программу для чип тюнинга скачать Hyundai flasher

Mat - 31-12-2014 7

Программу для чип тюнинга скачать CTP 3.21 full

программа для чип тюнинга скачать:

  • скачать
  • скачать
  • Другие статьи

    Chip tuning PRO Инфа и софт по тюнингу и Чип тюнингу ВАЗ 2110-11-12

    Chip tuning PRO Инфа и софт по тюнингу и Чип тюнингу ВАЗ 2110-11-12

    Программу для чип тюнинга скачать

    Стаж: 9 лет 11 месяцев

    rsmst · 19-Ноя-07 10:51 (9 лет 9 месяцев назад, ред. 20-Апр-16 14:31)

    Совместимость с Vista : нет

    Описание : Программа "Чип тюнинг v2.6" для прошивок ЭБУ Bosh M1.5.4, Январь-4 и Январь-5.1, VS-5.1

    Chip Tuning PRO 2.15

    Програма диагностики систем управления инжекторными дмигателями

    Слитие прошивок 2 в 1

    Программатор микросхем ПЗУ 27С256 и 27С512

    и многое другое.

    Программу для чип тюнинга скачать

    Стаж: 10 лет 4 месяца

    AcidLime · 19-Ноя-07 23:51 (спустя 12 часов, ред. 20-Апр-16 14:31)

    Спасибо огромное за помошь в развитии раздела..

    Мы все это ценим..

    и сообственно БОЛЬШОЕ спасибо от меня лично.. и от моих работников

    Программу для чип тюнинга скачать

    Стаж: 9 лет 9 месяцев

    te1c · 20-Ноя-07 18:46 (спустя 18 часов, ред. 20-Апр-16 14:31)

    Позвольте, а где CTpro 3,1 в скринах есть, а в архиве нет.

    Стаж: 9 лет 8 месяцев

    Karimm · 08-Дек-07 01:05 (спустя 17 дней, ред. 20-Апр-16 14:31)

    ******** самый продвинутый в этом деле форум

    ссылки на сторонние ресурсы запрещены

    Программу для чип тюнинга скачать

    Sam200710 · 08-Дек-07 17:57 (спустя 16 часов, ред. 20-Апр-16 14:31)

    А для Daewoo Lanos может есть что то подобное ? :-[

    Программу для чип тюнинга скачать

    Стаж: 10 лет 1 месяц

    mikmax · 16-Янв-08 11:11 (спустя 1 месяц 7 дней, ред. 20-Апр-16 14:31)

    Стаж: 9 лет 8 месяцев

    Karimm · 16-Янв-08 22:05 (спустя 10 часов, ред. 20-Апр-16 14:31)

    весь хлам есть лежит свободно в сети, я бы с удовольствием выложил бы отлученный от хвоста СTP4 pro, но сейчас сижу за НАТом.

    и вообще если нельзя давать ссылку, то попробуйте в яндексе поискать ОКТЯ

    Стаж: 9 лет 7 месяцев

    endru6666 · 24-Янв-08 12:03 (спустя 7 дней, ред. 20-Апр-16 14:31)

    Программу для чип тюнинга скачать

    Стаж: 10 лет 1 месяц

    mikmax · 25-Фев-08 11:09 (спустя 1 месяц, ред. 20-Апр-16 14:31)

    весь хлам есть лежит свободно в сети, я бы с удовольствием выложил бы отлученный от хвоста СTP4 pro, но сейчас сижу за НАТом.

    и вообще если нельзя давать ссылку, то попробуйте в яндексе поискать ОКТЯ

    Зы Но что-то не верится. Весь софт что "за даром" лежит в нэте, отдается самое что есть бесплатное на обмен

    Алексей Пахомов, Автомобильный чип-тюнинг: базовые понятия (2013) WEB-DL

    Алексей Пахомов | Автомобильный чип-тюнинг: базовые понятия (2013) WEB-DL [H.264]

    Программу для чип тюнинга скачать

    Жанр: Обучающие видеуроки

    Качество видео: WEB-DL

    Видеокодек: MPEG-4 (AVC1)

    Размер кадра: 1280x720, 1280x1024

    Битрейт аудио: 128-192 kb/s, 2Ch, 48000 Hz

    Какая самая популярная на сегодняшний день услуга автосервиса в области электроники?

    Конечно же, это чип-тюнинг.

    Если Вы не знаете, что это такое, какое для этого нужно оборудование, что находится внутри электронного блока управления двигателем, как его "шить", как править калибровки, то видеокурс "Чип-тюнинг" для Вас!

    Видеокурс длится в общей сложности 4 часа. После просмотра Вы узнаете:

    -что такое "чип-тюнинг" и из чего состоит прошивка блока;

    -что находится внутри ЭБУ и какие изменения произошли там за последние годы;

    -что такое "загрузчик" и "редактор калибровок";

    -как грамотно установить и настроить загрузчик CombiLoader

    -какие проблемы и как решаются с помощью калибровок;

    -как настроить двигатель с газобаллонным оборудованием;

    -каким образом отключить лямбда-регулирование;

    -и многое другое!

    Count of stream of this kind : 1

    Kind of stream : General

    Kind of stream : General

    Stream identifier : 0

    Inform : MPEG-4 (Base Media / Version 2): 74.3 MiB, 7mn 26s

    Count of video streams : 1

    Count of audio streams : 1

    Codecs Video : AVC

    Audio codecs : AAC LC

    Complete name : Tuning2014/01_Вступительное слово.mp4

    Folder name : Tuning2014

    File name : 01_Вступительное слово

    File extension : mp4

    Format/Extensions usually used : mp4 m4v m4a m4b m4p 3gpp 3gp 3gpp2 3g2 k3g jpm jpx mqv ismv isma f4v

    Commercial name : MPEG-4

    Format profile : Base Media / Version 2

    Internet media type : video/mp4

    Codec/Extensions usually used : mp4 m4v m4a m4b m4p 3gpp 3gp 3gpp2 3g2 k3g jpm jpx mqv ismv isma f4v

    File size : 77948624

    File size : 74.3 MiB

    File size : 74 MiB

    File size : 74 MiB

    File size : 74.3 MiB

    File size : 74.34 MiB

    Duration : 7mn 26s

    Duration : 7mn 26s 960ms

    Duration : 7mn 26s

    Overall bit rate mode : VBR

    Overall bit rate mode : Variable

    Overall bit rate : 1395179

    Overall bit rate : 1 395 Kbps

    Stream size : 255137

    Stream size : 249 KiB (0%)

    Stream size : 249 KiB

    Stream size : 249 KiB

    Stream size : 249 KiB

    Stream size : 249.2 KiB

    Stream size : 249 KiB (0%)

    Proportion of this stream : 0.00327

    Encoded date : UTC 2013-11-27 07:29:54

    Tagged date : UTC 2013-11-27 07:29:54

    File last modification date : UTC 2014-11-15 16:29:14

    File last modification date (local) : 2014-11-15 19:29:14

    Count of stream of this kind : 1

    Kind of stream : Video

    Kind of stream : Video

    Stream identifier : 0

    Inform : English, 1 199 Kbps, 1280*720 (16:9), at 25.000 fps, AVC (NTSC) (High@L3.2) (CABAC / 4 Ref Frames)

    Format/Info : Advanced Video Codec

    Commercial name : AVC

    Format settings : CABAC / 4 Ref Frames

    Format settings, CABAC : Yes

    Format settings, CABAC : Yes

    Format settings, ReFrames : 4

    Format settings, ReFrames : 4 frames

    Internet media type : video/H264

    Codec ID/Info : Advanced Video Coding

    Codec/Info : Advanced Video Codec

    Codec settings : CABAC / 4 Ref Frames

    Codec settings, CABAC : Yes

    Duration : 7mn 26s

    Duration : 7mn 26s 960ms

    Duration : 7mn 26s

    Bit rate mode : VBR

    Bit rate mode : Variable

    Bit rate : 1198542

    Bit rate : 1 199 Kbps

    Maximum bit rate : 3000000

    Maximum bit rate : 3 000 Kbps

    Width : 1 280 pixels

    Height : 720 pixels

    Pixel aspect ratio : 1.000

    Display aspect ratio : 1.778

    Display aspect ratio : 16:9

    Frame rate mode : CFR

    Frame rate mode : Constant

    Frame rate : 25.000

    Frame rate : 25.000 fps

    Frame count : 11174

    Resolution : 8 bits

    Color space : YUV

    Chroma subsampling : 4:2:0

    Bit depth : 8 bits

    Scan type : Progressive

    Scan type : Progressive

    Stream size : 66962527

    Stream size : 63.9 MiB (86%)

    Stream size : 64 MiB

    Stream size : 64 MiB

    Stream size : 63.9 MiB

    Stream size : 63.86 MiB

    Stream size : 63.9 MiB (86%)

    Proportion of this stream : 0.85906

    Encoded date : UTC 2013-11-27 07:29:54

    Tagged date : UTC 2013-11-27 07:29:54

    Buffer size : 2400000

    Color primaries : BT.709

    Transfer characteristics : BT.709

    Matrix coefficients : BT.709

    Count of stream of this kind : 1

    Kind of stream : Audio

    Kind of stream : Audio

    Stream identifier : 0

    Inform : English, 192 Kbps, 48.0 KHz, channel0, AAC (LC)

    Format/Info : Advanced Audio Codec

    Commercial name : AAC

    Format profile : LC

    Duration : 7mn 26s

    Duration : 7mn 26s 912ms

    Duration : 7mn 26s

    Bit rate mode : CBR

    Bit rate mode : Constant

    Bit rate : 192000

    Bit rate : 192 Kbps

    Channel(s)_Original : 2 channels

    Channel positions : Front: L R

    Channel positions : 2/0/0

    ChannelLayout : L R

    Sampling rate : 48000

    Sampling rate : 48.0 KHz

    Samples count : 21451776

    Frame count : 20949

    Compression mode : Lossy

    Compression mode : Lossy

    Stream size : 10730960

    Stream size : 10.2 MiB (14%)

    Stream size : 10 MiB

    Stream size : 10 MiB

    Stream size : 10.2 MiB

    Stream size : 10.23 MiB

    Stream size : 10.2 MiB (14%)

    Proportion of this stream : 0.13767

    Encoded date : UTC 2013-11-27 07:29:54

    Tagged date : UTC 2013-11-27 07:29:54

    Count of stream of this kind : 1

    Kind of stream : General

    Kind of stream : General

    Stream identifier : 0

    Inform : MPEG-4 (Base Media / Version 2): 78.8 MiB, 9mn 6s

    Count of video streams : 1

    Count of audio streams : 1

    Codecs Video : AVC

    Audio codecs : AAC LC

    Complete name : Tuning2014/14_Перекалибровка и безопасность.mp4

    Folder name : Tuning2014

    File name : 14_Перекалибровка и безопасность

    File extension : mp4

    Format/Extensions usually used : mp4 m4v m4a m4b m4p 3gpp 3gp 3gpp2 3g2 k3g jpm jpx mqv ismv isma f4v

    Commercial name : MPEG-4

    Format profile : Base Media / Version 2

    Internet media type : video/mp4

    Codec/Extensions usually used : mp4 m4v m4a m4b m4p 3gpp 3gp 3gpp2 3g2 k3g jpm jpx mqv ismv isma f4v

    File size : 82650224

    File size : 78.8 MiB

    File size : 79 MiB

    File size : 79 MiB

    File size : 78.8 MiB

    File size : 78.82 MiB

    Duration : 9mn 6s

    Duration : 9mn 6s 267ms

    Duration : 9mn 6s

    Overall bit rate mode : VBR

    Overall bit rate mode : Variable

    Overall bit rate : 1210400

    Overall bit rate : 1 210 Kbps

    Stream size : 231268

    Stream size : 226 KiB (0%)

    Stream size : 226 KiB

    Stream size : 226 KiB

    Stream size : 226 KiB

    Stream size : 225.8 KiB

    Stream size : 226 KiB (0%)

    Proportion of this stream : 0.00280

    Encoded date : UTC 2013-11-25 13:32:30

    Tagged date : UTC 2013-11-25 13:32:30

    File last modification date : UTC 2014-11-15 16:30:19

    File last modification date (local) : 2014-11-15 19:30:19

    Count of stream of this kind : 1

    Kind of stream : Video

    Kind of stream : Video

    Stream identifier : 0

    Inform : English, 1 079 Kbps, 1280*1024 (5:4), at 15.000 fps, AVC (NTSC) (High@L4.0) (CABAC / 4 Ref Frames)

    Format/Info : Advanced Video Codec

    Commercial name : AVC

    Format settings : CABAC / 4 Ref Frames

    Format settings, CABAC : Yes

    Format settings, CABAC : Yes

    Format settings, ReFrames : 4

    Format settings, ReFrames : 4 frames

    Internet media type : video/H264

    Codec ID/Info : Advanced Video Coding

    Codec/Info : Advanced Video Codec

    Codec settings : CABAC / 4 Ref Frames

    Codec settings, CABAC : Yes

    Duration : 9mn 6s

    Duration : 9mn 6s 267ms

    Duration : 9mn 6s

    Bit rate mode : VBR

    Bit rate mode : Variable

    Bit rate : 1078984

    Bit rate : 1 079 Kbps

    Maximum bit rate : 1800000

    Maximum bit rate : 1 800 Kbps

    Width : 1 280 pixels

    Height : 1 024 pixels

    Pixel aspect ratio : 1.000

    Display aspect ratio : 1.250

    Display aspect ratio : 5:4

    Frame rate mode : CFR

    Frame rate mode : Constant

    Frame rate : 15.000

    Frame rate : 15.000 fps

    Frame count : 8194

    Resolution : 8 bits

    Color space : YUV

    Chroma subsampling : 4:2:0

    Bit depth : 8 bits

    Scan type : Progressive

    Scan type : Progressive

    Stream size : 73676602

    Stream size : 70.3 MiB (89%)

    Stream size : 70 MiB

    Stream size : 70 MiB

    Stream size : 70.3 MiB

    Stream size : 70.26 MiB

    Stream size : 70.3 MiB (89%)

    Proportion of this stream : 0.89143

    Encoded date : UTC 2013-11-25 13:32:30

    Tagged date : UTC 2013-11-25 13:32:30

    Buffer size : 1440000

    Color primaries : BT.709

    Transfer characteristics : BT.709

    Matrix coefficients : BT.709

    Count of stream of this kind : 1

    Kind of stream : Audio

    Kind of stream : Audio

    Stream identifier : 0

    Inform : English, 128 Kbps, 48.0 KHz, channel0, AAC (LC)

    Программы для чип тюнинга

    программы для чип тюнинга ST10Flasher 2.4

    автор mmx_xmx 1 Ответов 6881 Просмотров m_miha Последние сообщения

    в Вт Фев 24, 2015 5:43 am ChipTuningPRO v7.0.1.728

    автор romkencom 6 Ответов 10014 Просмотров Agent 009 Последние сообщения

    в Сб Дек 20, 2014 2:49 am Hyundai Flasher

    автор freeware 9 Ответов 6394 Просмотров adviser2 Последние сообщения

    в Чт Янв 24, 2013 2:08 am Simk43_flasher

    автор mobyx 0 Ответов 1730 Просмотров mobyx Последние сообщения

    в Вт Янв 22, 2013 8:31 am Chip Tuning PRO 4 качаем здесь

    1 , 2 автор Admin 28 Ответов 10132 Просмотров aleksm Последние сообщения

    в Ср Фев 15, 2012 5:30 am Перепрошивка Renault Logan с Евро-3 на Евро-4

    автор Dark770 1 Ответов 4330 Просмотров aleksm Последние сообщения

    в Пн Фев 13, 2012 10:47 pm ChipLoader 1.97.7

    автор Гость 23 Ответов 10022 Просмотров aleksm Последние сообщения

    в Пн Фев 13, 2012 10:45 pm ПАК Матрица.софт для автоматической настройки прошивок в онлайне

    автор Диман 14 Ответов 10000 Просмотров adviser2 Последние сообщения

    в Сб Июл 16, 2011 4:34 pm ROMTool скачать

    автор Admin 1 Ответов 2810 Просмотров dac Последние сообщения

    в Вт Июн 28, 2011 12:59 am программатор ЭБУ

    1 , 2 автор Admin 27 Ответов 10030 Просмотров dac Последние сообщения

    в Вт Июн 28, 2011 12:58 am combiloader v 2.15

    автор Olegxxxx 1 Ответов 4512 Просмотров dac Последние сообщения

    в Вт Июн 28, 2011 12:56 am OpenBox 3.19

    автор mmx_xmx 10 Ответов 6232 Просмотров adviser2 Последние сообщения

    в Сб Июн 18, 2011 6:49 pm Windows XP SP3 Professional IDimm Edition

    автор Admin 1 Ответов 1419 Просмотров Admin Последние сообщения

    в Пт Апр 01, 2011 9:06 pm LoaderM797Plus1 скачать

    автор Admin 0 Ответов 2484 Просмотров Admin Последние сообщения

    в Пн Мар 28, 2011 7:58 am loders797 скачать

    автор Admin 0 Ответов 1790 Просмотров Admin Последние сообщения

    в Пн Мар 28, 2011 7:43 am Openbox v.3.08.1 скачать

    автор Admin 0 Ответов 5721 Просмотров Admin Последние сообщения

    в Пн Мар 28, 2011 7:00 am Chip Tuning PROV3.21

    автор Admin 2 Ответов 3775 Просмотров Admin Последние сообщения

    в Вс Мар 27, 2011 11:22 am Редактор калибровок M11 EcuEditor2_07

    автор splinean 1 Ответов 4280 Просмотров autobos Последние сообщения

    в Сб Фев 26, 2011 11:47 pm помогите начинающему

    автор romanos76 3 Ответов 3586 Просмотров WIL1990 Последние сообщения

    в Вс Сен 12, 2010 8:22 pm Дополнительные програмные модули для СТР6 ?

    автор pyram 3 Ответов 3093 Просмотров pyram Последние сообщения

    в Пт Июн 04, 2010 8:22 pm j5 ON-Line Tuner

    автор adviser2 7 Ответов 6970 Просмотров adviser2 Последние сообщения

    в Вс Май 09, 2010 8:31 am ChipExplorer

    автор Admin 10 Ответов 5846 Просмотров aleynik-aleksandr Последние сообщения

    в Сб Апр 03, 2010 9:37 pm ChipLoader 1.9.6 полностью рабочий и отученый от железа+ бонус ChipExplorer 1.95

    автор iras 8 Ответов 10047 Просмотров fakker Последние сообщения

    в Чт Окт 01, 2009 7:10 am Создание двухрежимной прошивки для VS 5.1

    автор pyram 0 Ответов 3380 Просмотров pyram Последние сообщения

    в Чт Сен 24, 2009 4:11 pm Combiloader 2

    автор pyram 9 Ответов 9419 Просмотров Гость Последние сообщения

    в Вс Сен 20, 2009 11:30 pm Программатор М7.9.7+

    автор pyram 1 Ответов 3247 Просмотров pyram Последние сообщения

    в Сб Сен 19, 2009 12:45 pm Чиптунинг митсубиши ланцер 9

    автор adviser2 1 Ответов 2530 Просмотров pyram Последние сообщения

    в Сб Сен 19, 2009 12:24 pm Модификатор прошивок "J5-2in1"

    автор pyram 0 Ответов 2318 Просмотров pyram Последние сообщения

    в Сб Сен 19, 2009 12:15 pm объясните начинающему

    автор SkyLine34 1 Ответов 2854 Просмотров pyram Последние сообщения

    в Ср Авг 26, 2009 8:23 pm ChipLoader 1.6

    автор Admin 1 Ответов 5034 Просмотров adviser2 Последние сообщения

    в Вс Июл 05, 2009 8:22 pm программы для чип тюнинга

    автор Admin 3 Ответов 6641 Просмотров adviser2 Последние сообщения

    в Вс Июл 05, 2009 8:22 pm скачать Chip Tuning PRO v6.8

    автор pyram 5 Ответов 10014 Просмотров pyram Последние сообщения

    в Ср Апр 22, 2009 9:54 am Chip-Tuning-PRO-v6.5

    автор Admin 8 Ответов 8785 Просмотров Chip091 Последние сообщения

    в Сб Апр 18, 2009 11:35 pm хелп по CombiLoader

    автор Admin 0 Ответов 3121 Просмотров Admin Последние сообщения

    в Пн Дек 08, 2008 7:50 am Подскажите с чего начать. У меня 2115 с контроллером Bosh M7.9.7

    автор Serj 1 Ответов 2817 Просмотров stronger Последние сообщения

    в Пт Авг 29, 2008 8:38 pm

    Сейчас этот форум просматривают: Нет

    Вы не можете начинать темы

    Вы не можете отвечать на сообщения

    Школа автомобильной диагностики Алексея Пахомова: «Чип-тюнинг: базовые понятия» Россия (CamRip) (2014) торрент

    Скачать Школа автомобильной диагностики Алексея Пахомова:«Чип-тюнинг: базовые понятия» Россия (CamRip) (2014) торрент

    Программу для чип тюнинга скачать

    Год выпуска: 2014

    Перевод: Не требуется

    Русские субтитры: нет

    Формат видео: MP4

    Видео: Переменный 1131-1607 Кбит/сек, 1280x720(16:9) 25 FPS, 1280x1024(5:4) 15 FPS, AVC(NTSC)(High@L4.0)(CABAC/4 Ref Frames)

    Аудио: 128-192 kb/s, 2Ch, 48000 Hz

    Если Вы не знаете, что это такое, какое для этого нужно оборудование, что находится внутри электронного блока управления двигателем, как его "шить", как править калибровки, то видеокурс "Чип-тюнинг" для Вас!

    -что такое "чип-тюнинг" и из чего состоит прошивка блока;

    -что находится внутри ЭБУ и какие изменения произошли там за последние годы;

    -что такое "загрузчик" и "редактор калибровок";

    -как грамотно установить и настроить загрузчик CombiLoader

    -какие проблемы и как решаются с помощью калибровок;

    -как настроить двигатель с газобаллонным оборудованием;

    -каким образом отключить лямбда-регулирование;

    -и многое другое!

    Полное имя : E:\Мои раздачи\Видеокурсы по автомобилям\Tuning2014\01_Вступительное слово.mp4

    Профиль формата : Base Media / Version 2

    Идентификатор кодека : mp42

    Размер файла : 74,3 Мбайт

    Продолжительность : 7 м. 26 с.

    Режим общего битрейта : Переменный

    Общий поток : 1395 Кбит/сек

    Дата кодирования : UTC 2013-11-27 07:29:54

    Дата пометки : UTC 2013-11-27 07:29:54

    Формат/Информация : Advanced Video Codec

    Профиль формата : High@L3.2

    Параметр CABAC формата : Да

    Параметр ReFrames формата : 4 кадра

    Идентификатор кодека : avc1

    Идентификатор кодека/Информация : Advanced Video Coding

    Продолжительность : 7 м. 26 с.

    Вид битрейта : Переменный

    Битрейт : 1199 Кбит/сек

    Максимальный битрейт : 3000 Кбит/сек

    Ширина : 1280 пикселей

    Высота : 720 пикселей

    Соотношение сторон : 16:9

    Режим частоты кадров : Постоянный

    Частота кадров : 25,000 кадров/сек

    Стандарт вещания : NTSC

    Цветовое пространство : YUV

    Субдискретизация насыщенности : 4:2:0

    Битовая глубина : 8 бит

    Тип развёртки : Прогрессивная

    Размер потока : 63,9 Мбайт (86%)

    Дата кодирования : UTC 2013-11-27 07:29:54

    Дата пометки : UTC 2013-11-27 07:29:54

    Основные цвета : BT.709

    Характеристики трансфера : BT.709

    Коэффициенты матрицы : BT.709

    Формат/Информация : Advanced Audio Codec

    Профиль формата : LC

    Идентификатор кодека : 40

    Продолжительность : 7 м. 26 с.

    Вид битрейта : Постоянный

    Битрейт : 192 Кбит/сек

    Channel(s)_Original : 2 канала

    Расположение каналов : Front: L R

    Частота : 48,0 КГц

    Метод сжатия : С потерями

    Размер потока : 10,2 Мбайт (14%)

    Дата кодирования : UTC 2013-11-27 07:29:54

    Дата пометки : UTC 2013-11-27 07:29:54

    Полное имя : E:\Мои раздачи\Видеокурсы по автомобилям\Tuning2014\02_Устройство блоков управления.mp4

    Профиль формата : Base Media / Version 2

    Идентификатор кодека : mp42

    Размер файла : 164 Мбайт

    Продолжительность : 16 м.

    Режим общего битрейта : Переменный

    Общий поток : 1396 Кбит/сек

    Дата кодирования : UTC 2013-11-25 11:51:57

    Дата пометки : UTC 2013-11-25 11:51:57

    Формат/Информация : Advanced Video Codec

    Профиль формата : High@L3.2

    Параметр CABAC формата : Да

    Параметр ReFrames формата : 4 кадра

    Идентификатор кодека : avc1

    Идентификатор кодека/Информация : Advanced Video Coding

    Продолжительность : 16 м.

    Вид битрейта : Переменный

    Битрейт : 1200 Кбит/сек

    Максимальный битрейт : 8000 Кбит/сек

    Ширина : 1280 пикселей

    Высота : 720 пикселей

    Соотношение сторон : 16:9

    Режим частоты кадров : Постоянный

    Частота кадров : 25,000 кадров/сек

    Стандарт вещания : NTSC

    Цветовое пространство : YUV

    Субдискретизация насыщенности : 4:2:0

    Битовая глубина : 8 бит

    Тип развёртки : Прогрессивная

    Размер потока : 141 Мбайт (86%)

    Дата кодирования : UTC 2013-11-25 11:51:57

    Дата пометки : UTC 2013-11-25 11:51:57

    Основные цвета : BT.709

    Характеристики трансфера : BT.709

    Коэффициенты матрицы : BT.709

    Формат/Информация : Advanced Audio Codec

    Профиль формата : LC

    Идентификатор кодека : 40

    Продолжительность : 16 м.

    Вид битрейта : Постоянный

    Битрейт : 192 Кбит/сек

    Channel(s)_Original : 2 канала

    Расположение каналов : Front: L R

    Частота : 48,0 КГц

    Метод сжатия : С потерями

    Размер потока : 22,5 Мбайт (14%)

    Дата кодирования : UTC 2013-11-25 11:51:57

    Дата пометки : UTC 2013-11-25 11:51:57

    Полное имя : E:\Мои раздачи\Видеокурсы по автомобилям\Tuning2014\03_K-line и CAN.mp4

    Профиль формата : Base Media / Version 2

    Идентификатор кодека : mp42

    Размер файла : 87,2 Мбайт

    Продолжительность : 8 м. 43 с.

    Режим общего битрейта : Переменный

    Общий поток : 1396 Кбит/сек

    Дата кодирования : UTC 2013-11-25 11:35:19

    Дата пометки : UTC 2013-11-25 11:35:19

    Формат/Информация : Advanced Video Codec

    Профиль формата : High@L3.2

    Параметр CABAC формата : Да

    Параметр ReFrames формата : 4 кадра

    Идентификатор кодека : avc1

    Идентификатор кодека/Информация : Advanced Video Coding

    Продолжительность : 8 м. 43 с.

    Вид битрейта : Переменный

    Битрейт : 1199 Кбит/сек

    Максимальный битрейт : 3000 Кбит/сек

    Ширина : 1280 пикселей

    Высота : 720 пикселей

    Соотношение сторон : 16:9

    Режим частоты кадров : Постоянный

    Частота кадров : 25,000 кадров/сек

    Стандарт вещания : NTSC

    Цветовое пространство : YUV

    Субдискретизация насыщенности : 4:2:0

    Битовая глубина : 8 бит

    Тип развёртки : Прогрессивная

    Размер потока : 74,9 Мбайт (86%)

    Дата кодирования : UTC 2013-11-25 11:35:19

    Дата пометки : UTC 2013-11-25 11:35:19

    Основные цвета : BT.709

    Характеристики трансфера : BT.709

    Коэффициенты матрицы : BT.709

    Формат/Информация : Advanced Audio Codec

    Профиль формата : LC

    Идентификатор кодека : 40

    Продолжительность : 8 м. 43 с.

    Вид битрейта : Постоянный

    Битрейт : 192 Кбит/сек

    Channel(s)_Original : 2 канала

    Расположение каналов : Front: L R

    Частота : 48,0 КГц

    Метод сжатия : С потерями

    Размер потока : 12,0 Мбайт (14%)

    Дата кодирования : UTC 2013-11-25 11:35:19

    Дата пометки : UTC 2013-11-25 11:35:19

    Полное имя : E:\Мои раздачи\Видеокурсы по автомобилям\Tuning2014\04_Шестнадцатеричная система.mp4

    Профиль формата : Base Media / Version 2

    Идентификатор кодека : mp42

    Размер файла : 106 Мбайт

    Продолжительность : 10 м.

    Режим общего битрейта : Переменный

    Общий поток : 1397 Кбит/сек

    Дата кодирования : UTC 2013-11-25 12:02:45

    Дата пометки : UTC 2013-11-25 12:02:45

    Формат/Информация : Advanced Video Codec

    Профиль формата : High@L3.2

    Параметр CABAC формата : Да

    Параметр ReFrames формата : 4 кадра

    Идентификатор кодека : avc1

    Идентификатор кодека/Информация : Advanced Video Coding

    Продолжительность : 10 м.

    Вид битрейта : Переменный

    Битрейт : 1200 Кбит/сек

    Максимальный битрейт : 3000 Кбит/сек

    Ширина : 1280 пикселей

    Высота : 720 пикселей

    Соотношение сторон : 16:9

    Режим частоты кадров : Постоянный

    Частота кадров : 25,000 кадров/сек

    Стандарт вещания : NTSC

    Цветовое пространство : YUV

    Субдискретизация насыщенности : 4:2:0

    Битовая глубина : 8 бит

    Тип развёртки : Прогрессивная

    Размер потока : 90,8 Мбайт (86%)

    Дата кодирования : UTC 2013-11-25 12:02:45

    Дата пометки : UTC 2013-11-25 12:02:45

    Основные цвета : BT.709

    Характеристики трансфера : BT.709

    Коэффициенты матрицы : BT.709

    Формат/Информация : Advanced Audio Codec

    Профиль формата : LC

    Идентификатор кодека : 40

    Продолжительность : 10 м.

    Вид битрейта : Постоянный

    Битрейт : 192 Кбит/сек

    Channel(s)_Original : 2 канала

    Расположение каналов : Front: L R

    Частота : 48,0 КГц

    Метод сжатия : С потерями

    Размер потока : 14,5 Мбайт (14%)

    Дата кодирования : UTC 2013-11-25 12:02:45

    Дата пометки : UTC 2013-11-25 12:02:45

    Полное имя : E:\Мои раздачи\Видеокурсы по автомобилям\Tuning2014\05_Структура прошивки.mp4

    Профиль формата : Base Media / Version 2

    Идентификатор кодека : mp42

    Размер файла : 102 Мбайт

    Продолжительность : 10 м.

    Режим общего битрейта : Переменный

    Общий поток : 1397 Кбит/сек

    Дата кодирования : UTC 2013-11-25 12:17:19

    Дата пометки : UTC 2013-11-25 12:17:19

    Формат/Информация : Advanced Video Codec

    Профиль формата : High@L3.2

    Параметр CABAC формата : Да

    Параметр ReFrames формата : 4 кадра

    Идентификатор кодека : avc1

    Идентификатор кодека/Информация : Advanced Video Coding

    Продолжительность : 10 м.

    Вид битрейта : Переменный

    Битрейт : 1200 Кбит/сек

    Максимальный битрейт : 8000 Кбит/сек

    Ширина : 1280 пикселей

    Высота : 720 пикселей

    Соотношение сторон : 16:9

    Режим частоты кадров : Постоянный

    Частота кадров : 25,000 кадров/сек

    Стандарт вещания : NTSC

    Цветовое пространство : YUV

    Субдискретизация насыщенности : 4:2:0

    Битовая глубина : 8 бит

    Тип развёртки : Прогрессивная

    Размер потока : 87,9 Мбайт (86%)

    Дата кодирования : UTC 2013-11-25 12:17:19

    Дата пометки : UTC 2013-11-25 12:17:19

    Основные цвета : BT.709

    Характеристики трансфера : BT.709

    Коэффициенты матрицы : BT.709

    Формат/Информация : Advanced Audio Codec

    Профиль формата : LC

    Идентификатор кодека : 40

    Продолжительность : 10 м.

    Вид битрейта : Постоянный

    Битрейт : 192 Кбит/сек

    Channel(s)_Original : 2 канала

    Расположение каналов : Front: L R

    Частота : 48,0 КГц

    Метод сжатия : С потерями

    Размер потока : 14,1 Мбайт (14%)

    Дата кодирования : UTC 2013-11-25 12:17:19

    Дата пометки : UTC 2013-11-25 12:17:19

    Полное имя : E:\Мои раздачи\Видеокурсы по автомобилям\Tuning2014\06_Процесс чип-тюнинга.mp4

    Профиль формата : Base Media / Version 2

    Идентификатор кодека : mp42

    Размер файла : 98,9 Мбайт

    Продолжительность : 9 м. 54 с.

    Режим общего битрейта : Переменный

    Общий поток : 1396 Кбит/сек

    Дата кодирования : UTC 2013-11-25 12:21:38

    Дата пометки : UTC 2013-11-25 12:21:38

    Формат/Информация : Advanced Video Codec

    Профиль формата : High@L3.2

    Параметр CABAC формата : Да

    Параметр ReFrames формата : 4 кадра

    Идентификатор кодека : avc1

    Идентификатор кодека/Информация : Advanced Video Coding

    Продолжительность : 9 м. 54 с.

    Вид битрейта : Переменный

    Битрейт : 1200 Кбит/сек

    Максимальный битрейт : 3000 Кбит/сек

    Ширина : 1280 пикселей

    Высота : 720 пикселей

    Соотношение сторон : 16:9

    Режим частоты кадров : Постоянный

    Частота кадров : 25,000 кадров/сек

    Стандарт вещания : NTSC

    Цветовое пространство : YUV

    Субдискретизация насыщенности : 4:2:0

    Битовая глубина : 8 бит

    Тип развёртки : Прогрессивная

    Размер потока : 85,0 Мбайт (86%)

    Дата кодирования : UTC 2013-11-25 12:21:38

    Дата пометки : UTC 2013-11-25 12:21:38

    Основные цвета : BT.709

    Характеристики трансфера : BT.709

    Коэффициенты матрицы : BT.709

    Формат/Информация : Advanced Audio Codec

    Профиль формата : LC

    Идентификатор кодека : 40

    Продолжительность : 9 м. 54 с.

    Вид битрейта : Постоянный

    Битрейт : 192 Кбит/сек

    Channel(s)_Original : 2 канала

    Расположение каналов : Front: L R

    Частота : 48,0 КГц

    Метод сжатия : С потерями

    Размер потока : 13,6 Мбайт (14%)

    Дата кодирования : UTC 2013-11-25 12:21:38

    Дата пометки : UTC 2013-11-25 12:21:38

    Полное имя : E:\Мои раздачи\Видеокурсы по автомобилям\Tuning2014\07_Блоки управления ВАЗ.mp4

    Профиль формата : Base Media / Version 2

    Идентификатор кодека : mp42

    Размер файла : 336 Мбайт

    Продолжительность : 33 м.

    Режим общего битрейта : Переменный

    Общий поток : 1396 Кбит/сек

    Дата кодирования : UTC 2013-11-27 12:30:01

    Дата пометки : UTC 2013-11-27 12:30:01

    Формат/Информация : Advanced Video Codec

    Профиль формата : High@L3.2

    Параметр CABAC формата : Да

    Параметр ReFrames формата : 4 кадра

    Идентификатор кодека : avc1

    Идентификатор кодека/Информация : Advanced Video Coding

    Продолжительность : 33 м.

    Вид битрейта : Переменный

    Битрейт : 1199 Кбит/сек

    Максимальный битрейт : 3000 Кбит/сек

    Ширина : 1280 пикселей

    Высота : 720 пикселей

    Соотношение сторон : 16:9

    Режим частоты кадров : Постоянный

    Частота кадров : 25,000 кадров/сек

    Стандарт вещания : NTSC

    Цветовое пространство : YUV

    Субдискретизация насыщенности : 4:2:0

    Битовая глубина : 8 бит

    Тип развёртки : Прогрессивная

    Размер потока : 288 Мбайт (86%)

    Дата кодирования : UTC 2013-11-27 12:30:01

    Дата пометки : UTC 2013-11-27 12:30:01

    Основные цвета : BT.709

    Характеристики трансфера : BT.709

    Коэффициенты матрицы : BT.709

    Формат/Информация : Advanced Audio Codec

    Профиль формата : LC

    Идентификатор кодека : 40

    Продолжительность : 33 м.

    Вид битрейта : Постоянный

    Битрейт : 192 Кбит/сек

    Channel(s)_Original : 2 канала

    Расположение каналов : Front: L R

    Частота : 48,0 КГц

    Метод сжатия : С потерями

    Размер потока : 46,2 Мбайт (14%)

    Дата кодирования : UTC 2013-11-27 12:30:01

    Дата пометки : UTC 2013-11-27 12:30:01

    Полное имя : E:\Мои раздачи\Видеокурсы по автомобилям\Tuning2014\08_Установка и настройка CombiLoader.mp4

    Профиль формата : Base Media / Version 2

    Идентификатор кодека : mp42

    Размер файла : 127 Мбайт

    Продолжительность : 12 м.

    Режим общего битрейта : Переменный

    Общий поток : 1389 Кбит/сек

    Дата кодирования : UTC 2013-11-25 13:22:10

    Дата пометки : UTC 2013-11-25 13:22:10

    Формат/Информация : Advanced Video Codec

    Профиль формата : High@L3.2

    Параметр CABAC формата : Да

    Параметр ReFrames формата : 4 кадра

    Идентификатор кодека : avc1

    Идентификатор кодека/Информация : Advanced Video Coding

    Продолжительность : 12 м.

    Вид битрейта : Переменный

    Битрейт : 1192 Кбит/сек

    Максимальный битрейт : 3000 Кбит/сек

    Ширина : 1280 пикселей

    Высота : 720 пикселей

    Соотношение сторон : 16:9

    Режим частоты кадров : Постоянный

    Частота кадров : 25,000 кадров/сек

    Стандарт вещания : NTSC

    Цветовое пространство : YUV

    Субдискретизация насыщенности : 4:2:0

    Битовая глубина : 8 бит

    Тип развёртки : Прогрессивная

    Размер потока : 109 Мбайт (86%)

    Дата кодирования : UTC 2013-11-25 13:22:10

    Дата пометки : UTC 2013-11-25 13:22:10

    Основные цвета : BT.709

    Характеристики трансфера : BT.709

    Коэффициенты матрицы : BT.709

    Формат/Информация : Advanced Audio Codec

    Профиль формата : LC

    Идентификатор кодека : 40

    Продолжительность : 12 м.

    Вид битрейта : Постоянный

    Битрейт : 192 Кбит/сек

    Channel(s)_Original : 2 канала

    Расположение каналов : Front: L R

    Частота : 48,0 КГц

    Метод сжатия : С потерями

    Размер потока : 17,6 Мбайт (14%)

    Дата кодирования : UTC 2013-11-25 13:22:10

    Дата пометки : UTC 2013-11-25 13:22:10

    Полное имя : E:\Мои раздачи\Видеокурсы по автомобилям\Tuning2014\09_ЭБУ с процессором С509.mp4

    Профиль формата : Base Media / Version 2

    Идентификатор кодека : mp42

    Размер файла : 68,7 Мбайт

    Продолжительность : 6 м. 50 с.

    Режим общего битрейта : Переменный

    Общий поток : 1402 Кбит/сек

    Дата кодирования : UTC 2013-11-25 12:48:48

    Дата пометки : UTC 2013-11-25 12:48:48

    Формат/Информация : Advanced Video Codec

    Профиль формата : High@L3.2

    Параметр CABAC формата : Да

    Параметр ReFrames формата : 4 кадра

    Идентификатор кодека : avc1

    Идентификатор кодека/Информация : Advanced Video Coding

    Продолжительность : 6 м. 50 с.

    Вид битрейта : Переменный

    Битрейт : 1205 Кбит/сек

    Максимальный битрейт : 3000 Кбит/сек

    Ширина : 1280 пикселей

    Высота : 720 пикселей

    Соотношение сторон : 16:9

    Режим частоты кадров : Постоянный

    Частота кадров : 25,000 кадров/сек

    Стандарт вещания : NTSC

    Цветовое пространство : YUV

    Субдискретизация насыщенности : 4:2:0

    Битовая глубина : 8 бит

    Тип развёртки : Прогрессивная

    Размер потока : 59,0 Мбайт (86%)

    Дата кодирования : UTC 2013-11-25 12:48:48

    Дата пометки : UTC 2013-11-25 12:48:48

    Основные цвета : BT.709

    Характеристики трансфера : BT.709

    Коэффициенты матрицы : BT.709

    Формат/Информация : Advanced Audio Codec

    Профиль формата : LC

    Идентификатор кодека : 40

    Продолжительность : 6 м. 50 с.

    Вид битрейта : Постоянный

    Битрейт : 192 Кбит/сек

    Channel(s)_Original : 2 канала

    Расположение каналов : Front: L R

    Частота : 48,0 КГц

    Метод сжатия : С потерями

    Размер потока : 9,40 Мбайт (14%)

    Дата кодирования : UTC 2013-11-25 12:48:48

    Дата пометки : UTC 2013-11-25 12:48:48

    Полное имя : E:\Мои раздачи\Видеокурсы по автомобилям\Tuning2014\10_BOSCH 797.mp4

    Профиль формата : Base Media / Version 2

    Идентификатор кодека : mp42

    Размер файла : 68,5 Мбайт

    Продолжительность : 6 м. 52 с.

    Режим общего битрейта : Переменный

    Общий поток : 1391 Кбит/сек

    Дата кодирования : UTC 2013-11-25 13:04:30

    Дата пометки : UTC 2013-11-25 13:04:30

    Формат/Информация : Advanced Video Codec

    Профиль формата : High@L3.2

    Параметр CABAC формата : Да

    Параметр ReFrames формата : 4 кадра

    Идентификатор кодека : avc1

    Идентификатор кодека/Информация : Advanced Video Coding

    Продолжительность : 6 м. 52 с.

    Вид битрейта : Переменный

    Битрейт : 1195 Кбит/сек

    Максимальный битрейт : 3000 Кбит/сек

    Ширина : 1280 пикселей

    Высота : 720 пикселей

    Соотношение сторон : 16:9

    Режим частоты кадров : Постоянный

    Частота кадров : 25,000 кадров/сек

    Стандарт вещания : NTSC

    Цветовое пространство : YUV

    Субдискретизация насыщенности : 4:2:0

    Битовая глубина : 8 бит

    Тип развёртки : Прогрессивная

    Размер потока : 58,8 Мбайт (86%)

    Дата кодирования : UTC 2013-11-25 13:04:30

    Дата пометки : UTC 2013-11-25 13:04:30

    Основные цвета : BT.709

    Характеристики трансфера : BT.709

    Коэффициенты матрицы : BT.709

    Формат/Информация : Advanced Audio Codec

    Профиль формата : LC

    Идентификатор кодека : 40

    Продолжительность : 6 м. 52 с.

    Вид битрейта : Постоянный

    Битрейт : 192 Кбит/сек

    Channel(s)_Original : 2 канала

    Расположение каналов : Front: L R

    Частота : 48,0 КГц

    Метод сжатия : С потерями

    Размер потока : 9,45 Мбайт (14%)

    Дата кодирования : UTC 2013-11-25 13:04:30

    Дата пометки : UTC 2013-11-25 13:04:30

    Полное имя : E:\Мои раздачи\Видеокурсы по автомобилям\Tuning2014\11_Процессоры_C16х_ST10.mp4

    Профиль формата : Base Media / Version 2

    Идентификатор кодека : mp42

    Размер файла : 65,6 Мбайт

    Продолжительность : 6 м. 34 с.

    Режим общего битрейта : Переменный

    Общий поток : 1395 Кбит/сек

    Дата кодирования : UTC 2013-11-25 13:04:53

    Дата пометки : UTC 2013-11-25 13:04:53

    Формат/Информация : Advanced Video Codec

    Профиль формата : High@L3.2

    Параметр CABAC формата : Да

    Параметр ReFrames формата : 4 кадра

    Идентификатор кодека : avc1

    Идентификатор кодека/Информация : Advanced Video Coding

    Продолжительность : 6 м. 34 с.

    Вид битрейта : Переменный

    Битрейт : 1199 Кбит/сек

    Максимальный битрейт : 3000 Кбит/сек

    Ширина : 1280 пикселей

    Высота : 720 пикселей

    Соотношение сторон : 16:9

    Режим частоты кадров : Постоянный

    Частота кадров : 25,000 кадров/сек

    Стандарт вещания : NTSC

    Цветовое пространство : YUV

    Субдискретизация насыщенности : 4:2:0

    Битовая глубина : 8 бит

    Тип развёртки : Прогрессивная

    Размер потока : 56,3 Мбайт (86%)

    Дата кодирования : UTC 2013-11-25 13:04:53

    Дата пометки : UTC 2013-11-25 13:04:53

    Основные цвета : BT.709

    Характеристики трансфера : BT.709

    Коэффициенты матрицы : BT.709

    Формат/Информация : Advanced Audio Codec

    Профиль формата : LC

    Идентификатор кодека : 40

    Продолжительность : 6 м. 34 с.

    Вид битрейта : Постоянный

    Битрейт : 192 Кбит/сек

    Channel(s)_Original : 2 канала

    Расположение каналов : Front: L R

    Частота : 48,0 КГц

    Метод сжатия : С потерями

    Размер потока : 9,03 Мбайт (14%)

    Дата кодирования : UTC 2013-11-25 13:04:53

    Дата пометки : UTC 2013-11-25 13:04:53

    Полное имя : E:\Мои раздачи\Видеокурсы по автомобилям\Tuning2014\12_Дополнительные модули.mp4

    Профиль формата : Base Media / Version 2

    Идентификатор кодека : mp42

    Размер файла : 76,0 Мбайт

    Продолжительность : 7 м. 37 с.

    Режим общего битрейта : Переменный

    Общий поток : 1395 Кбит/сек

    Дата кодирования : UTC 2013-11-25 13:23:27

    Дата пометки : UTC 2013-11-25 13:23:27

    Формат/Информация : Advanced Video Codec

    Профиль формата : High@L3.2

    Параметр CABAC формата : Да

    Параметр ReFrames формата : 4 кадра

    Идентификатор кодека : avc1

    Идентификатор кодека/Информация : Advanced Video Coding

    Продолжительность : 7 м. 37 с.

    Вид битрейта : Переменный

    Битрейт : 1198 Кбит/сек

    Максимальный битрейт : 3000 Кбит/сек

    Ширина : 1280 пикселей

    Высота : 720 пикселей

    Соотношение сторон : 16:9

    Режим частоты кадров : Постоянный

    Частота кадров : 25,000 кадров/сек

    Стандарт вещания : NTSC

    Цветовое пространство : YUV

    Субдискретизация насыщенности : 4:2:0

    Битовая глубина : 8 бит

    Тип развёртки : Прогрессивная

    Размер потока : 65,3 Мбайт (86%)

    Дата кодирования : UTC 2013-11-25 13:23:27

    Дата пометки : UTC 2013-11-25 13:23:27

    Основные цвета : BT.709

    Характеристики трансфера : BT.709

    Коэффициенты матрицы : BT.709

    Формат/Информация : Advanced Audio Codec

    Профиль формата : LC

    Идентификатор кодека : 40

    Продолжительность : 7 м. 37 с.

    Вид битрейта : Постоянный

    Битрейт : 192 Кбит/сек

    Channel(s)_Original : 2 канала

    Расположение каналов : Front: L R

    Частота : 48,0 КГц

    Метод сжатия : С потерями

    Размер потока : 10,5 Мбайт (14%)

    Дата кодирования : UTC 2013-11-25 13:23:27

    Дата пометки : UTC 2013-11-25 13:23:27

    Полное имя : E:\Мои раздачи\Видеокурсы по автомобилям\Tuning2014\13_Программирование по шине CAN.mp4

    Профиль формата : Base Media / Version 2

    Идентификатор кодека : mp42

    Размер файла : 132 Мбайт

    Продолжительность : 13 м.

    Режим общего битрейта : Переменный

    Общий поток : 1396 Кбит/сек

    Дата кодирования : UTC 2013-11-25 13:53:12

    Дата пометки : UTC 2013-11-25 13:53:12

    Формат/Информация : Advanced Video Codec

    Профиль формата : High@L3.2

    Параметр CABAC формата : Да

    Параметр ReFrames формата : 4 кадра

    Идентификатор кодека : avc1

    Идентификатор кодека/Информация : Advanced Video Coding

    Продолжительность : 13 м.

    Вид битрейта : Переменный

    Битрейт : 1200 Кбит/сек

    Максимальный битрейт : 3000 Кбит/сек

    Ширина : 1280 пикселей

    Высота : 720 пикселей

    Соотношение сторон : 16:9

    Режим частоты кадров : Постоянный

    Частота кадров : 25,000 кадров/сек

    Стандарт вещания : NTSC

    Цветовое пространство : YUV

    Субдискретизация насыщенности : 4:2:0

    Битовая глубина : 8 бит

    Тип развёртки : Прогрессивная

    Размер потока : 114 Мбайт (86%)

    Дата кодирования : UTC 2013-11-25 13:53:12

    Дата пометки : UTC 2013-11-25 13:53:12

    Основные цвета : BT.709

    Характеристики трансфера : BT.709

    Коэффициенты матрицы : BT.709

    Формат/Информация : Advanced Audio Codec

    Профиль формата : LC

    Идентификатор кодека : 40

    Продолжительность : 13 м.

    Вид битрейта : Постоянный

    Битрейт : 192 Кбит/сек

    Channel(s)_Original : 2 канала

    Расположение каналов : Front: L R

    Частота : 48,0 КГц

    Метод сжатия : С потерями

    Размер потока : 18,2 Мбайт (14%)

    Дата кодирования : UTC 2013-11-25 13:53:12

    Дата пометки : UTC 2013-11-25 13:53:12

    Полное имя : E:\Мои раздачи\Видеокурсы по автомобилям\Tuning2014\14_Перекалибровка и безопасность.mp4

    Профиль формата : Base Media / Version 2

    Идентификатор кодека : mp42

    Размер файла : 78,8 Мбайт

    Продолжительность : 9 м. 6 с.

    Режим общего битрейта : Переменный

    Общий поток : 1210 Кбит/сек

    Дата кодирования : UTC 2013-11-25 13:32:30

    Дата пометки : UTC 2013-11-25 13:32:30

    Формат/Информация : Advanced Video Codec

    Профиль формата : High@L4.0

    Параметр CABAC формата : Да

    Параметр ReFrames формата : 4 кадра

    Идентификатор кодека : avc1

    Идентификатор кодека/Информация : Advanced Video Coding

    Продолжительность : 9 м. 6 с.

    Вид битрейта : Переменный

    Битрейт : 1079 Кбит/сек

    Максимальный битрейт : 1800 Кбит/сек

    Ширина : 1280 пикселей

    Высота : 1024 пикселя

    Соотношение сторон : 5:4

    Режим частоты кадров : Постоянный

    Частота кадров : 15,000 кадров/сек

    Стандарт вещания : NTSC

    Цветовое пространство : YUV

    Субдискретизация насыщенности : 4:2:0

    Битовая глубина : 8 бит

    Тип развёртки : Прогрессивная

    Размер потока : 70,3 Мбайт (89%)

    Дата кодирования : UTC 2013-11-25 13:32:30

    Дата пометки : UTC 2013-11-25 13:32:30

    Основные цвета : BT.709

    Характеристики трансфера : BT.709

    Коэффициенты матрицы : BT.709

    Формат/Информация : Advanced Audio Codec

    Профиль формата : LC

    Идентификатор кодека : 40

    Продолжительность : 9 м. 6 с.

    Вид битрейта : Постоянный

    Битрейт : 128 Кбит/сек

    Channel(s)_Original : 2 канала

    Расположение каналов : Front: L R

    Частота : 48,0 КГц

    Метод сжатия : С потерями

    Размер потока : 8,34 Мбайт (11%)

    Дата кодирования : UTC 2013-11-25 13:32:30

    Дата пометки : UTC 2013-11-25 13:32:30

    Полное имя : E:\Мои раздачи\Видеокурсы по автомобилям\Tuning2014\15_Холостой ход и принудительный холостой ход.mp4

    Профиль формата : Base Media / Version 2

    Идентификатор кодека : mp42

    Размер файла : 204 Мбайт

    Продолжительность : 17 м.

    Режим общего битрейта : Переменный

    Общий поток : 1607 Кбит/сек

    Дата кодирования : UTC 2013-11-27 13:03:13

    Дата пометки : UTC 2013-11-27 13:03:13

    Формат/Информация : Advanced Video Codec

    Профиль формата : High@L4.0

    Параметр CABAC формата : Да

    Параметр ReFrames формата : 4 кадра

    Идентификатор кодека : avc1

    Идентификатор кодека/Информация : Advanced Video Coding

    Продолжительность : 17 м.

    Вид битрейта : Переменный

    Битрейт : 1476 Кбит/сек

    Максимальный битрейт : 4000 Кбит/сек

    Ширина : 1280 пикселей

    Высота : 1024 пикселя

    Соотношение сторон : 5:4

    Режим частоты кадров : Постоянный

    Частота кадров : 15,000 кадров/сек

    Стандарт вещания : NTSC

    Цветовое пространство : YUV

    Субдискретизация насыщенности : 4:2:0

    Битовая глубина : 8 бит

    Тип развёртки : Прогрессивная

    Размер потока : 187 Мбайт (92%)

    Дата кодирования : UTC 2013-11-27 13:03:13

    Дата пометки : UTC 2013-11-27 13:03:13

    Основные цвета : BT.709

    Характеристики трансфера : BT.709

    Коэффициенты матрицы : BT.709

    Формат/Информация : Advanced Audio Codec

    Профиль формата : LC

    Идентификатор кодека : 40

    Продолжительность : 17 м.

    Вид битрейта : Постоянный

    Битрейт : 128 Кбит/сек

    Channel(s)_Original : 2 канала

    Расположение каналов : Front: L R

    Частота : 48,0 КГц

    Метод сжатия : С потерями

    Размер потока : 16,3 Мбайт (8%)

    Дата кодирования : UTC 2013-11-27 13:03:13

    Дата пометки : UTC 2013-11-27 13:03:13

    Полное имя : E:\Мои раздачи\Видеокурсы по автомобилям\Tuning2014\16_Рабочие режимы.mp4

    Профиль формата : Base Media / Version 2

    Идентификатор кодека : mp42

    Размер файла : 108 Мбайт

    Продолжительность : 10 м.

    Режим общего битрейта : Переменный

    Общий поток : 1436 Кбит/сек

    Дата кодирования : UTC 2013-11-27 12:57:58

    Дата пометки : UTC 2013-11-27 12:57:58

    Формат/Информация : Advanced Video Codec

    Профиль формата : High@L4.0

    Параметр CABAC формата : Да

    Параметр ReFrames формата : 4 кадра

    Идентификатор кодека : avc1

    Идентификатор кодека/Информация : Advanced Video Coding

    Продолжительность : 10 м.

    Вид битрейта : Переменный

    Битрейт : 1304 Кбит/сек

    Максимальный битрейт : 4000 Кбит/сек

    Ширина : 1280 пикселей

    Высота : 1024 пикселя

    Соотношение сторон : 5:4

    Режим частоты кадров : Постоянный

    Частота кадров : 15,000 кадров/сек

    Стандарт вещания : NTSC

    Цветовое пространство : YUV

    Субдискретизация насыщенности : 4:2:0

    Битовая глубина : 8 бит

    Тип развёртки : Прогрессивная

    Размер потока : 97,8 Мбайт (91%)

    Дата кодирования : UTC 2013-11-27 12:57:58

    Дата пометки : UTC 2013-11-27 12:57:58

    Основные цвета : BT.709

    Характеристики трансфера : BT.709

    Коэффициенты матрицы : BT.709

    Формат/Информация : Advanced Audio Codec

    Профиль формата : LC

    Идентификатор кодека : 40

    Продолжительность : 10 м.

    Вид битрейта : Постоянный

    Битрейт : 128 Кбит/сек

    Channel(s)_Original : 2 канала

    Расположение каналов : Front: L R

    Частота : 48,0 КГц

    Метод сжатия : С потерями

    Размер потока : 9,60 Мбайт (9%)

    Дата кодирования : UTC 2013-11-27 12:57:58

    Дата пометки : UTC 2013-11-27 12:57:58

    Полное имя : E:\Мои раздачи\Видеокурсы по автомобилям\Tuning2014\17_Двигатели с ГБО.mp4

    Профиль формата : Base Media / Version 2

    Идентификатор кодека : mp42

    Размер файла : 158 Мбайт

    Продолжительность : 15 м.

    Режим общего битрейта : Переменный

    Общий поток : 1395 Кбит/сек

    Дата кодирования : UTC 2013-11-25 14:36:14

    Дата пометки : UTC 2013-11-25 14:36:14

    Формат/Информация : Advanced Video Codec

    Профиль формата : High@L3.2

    Параметр CABAC формата : Да

    Параметр ReFrames формата : 4 кадра

    Идентификатор кодека : avc1

    Идентификатор кодека/Информация : Advanced Video Coding

    Продолжительность : 15 м.

    Вид битрейта : Переменный

    Битрейт : 1199 Кбит/сек

    Максимальный битрейт : 3000 Кбит/сек

    Ширина : 1280 пикселей

    Высота : 720 пикселей

    Соотношение сторон : 16:9

    Режим частоты кадров : Постоянный

    Частота кадров : 25,000 кадров/сек

    Стандарт вещания : NTSC

    Цветовое пространство : YUV

    Субдискретизация насыщенности : 4:2:0

    Битовая глубина : 8 бит

    Тип развёртки : Прогрессивная

    Размер потока : 136 Мбайт (86%)

    Дата кодирования : UTC 2013-11-25 14:36:14

    Дата пометки : UTC 2013-11-25 14:36:14

    Основные цвета : BT.709

    Характеристики трансфера : BT.709

    Коэффициенты матрицы : BT.709

    Формат/Информация : Advanced Audio Codec

    Профиль формата : LC

    Идентификатор кодека : 40

    Продолжительность : 15 м.

    Вид битрейта : Постоянный

    Битрейт : 192 Кбит/сек

    Channel(s)_Original : 2 канала

    Расположение каналов : Front: L R

    Частота : 48,0 КГц

    Метод сжатия : С потерями

    Размер потока : 21,8 Мбайт (14%)

    Дата кодирования : UTC 2013-11-25 14:36:14

    Дата пометки : UTC 2013-11-25 14:36:14

    Полное имя : E:\Мои раздачи\Видеокурсы по автомобилям\Tuning2014\18_Калибровки BOSCH 7.9.7.mp4

    Профиль формата : Base Media / Version 2

    Идентификатор кодека : mp42

    Размер файла : 246 Мбайт

    Продолжительность : 23 м.

    Режим общего битрейта : Переменный

    Общий поток : 1459 Кбит/сек

    Дата кодирования : UTC 2013-11-27 13:18:01

    Дата пометки : UTC 2013-11-27 13:18:01

    Формат/Информация : Advanced Video Codec

    Профиль формата : High@L4.0

    Параметр CABAC формата : Да

    Параметр ReFrames формата : 4 кадра

    Идентификатор кодека : avc1

    Идентификатор кодека/Информация : Advanced Video Coding

    Продолжительность : 23 м.

    Вид битрейта : Переменный

    Битрейт : 1327 Кбит/сек

    Максимальный битрейт : 4000 Кбит/сек

    Ширина : 1280 пикселей

    Высота : 1024 пикселя

    Соотношение сторон : 5:4

    Режим частоты кадров : Постоянный

    Частота кадров : 15,000 кадров/сек

    Стандарт вещания : NTSC

    Цветовое пространство : YUV

    Субдискретизация насыщенности : 4:2:0

    Битовая глубина : 8 бит

    Тип развёртки : Прогрессивная

    Размер потока : 224 Мбайт (91%)

    Дата кодирования : UTC 2013-11-27 13:18:01

    Дата пометки : UTC 2013-11-27 13:18:01

    Основные цвета : BT.709

    Характеристики трансфера : BT.709

    Коэффициенты матрицы : BT.709

    Формат/Информация : Advanced Audio Codec

    Профиль формата : LC

    Идентификатор кодека : 40

    Продолжительность : 23 м.

    Вид битрейта : Постоянный

    Битрейт : 128 Кбит/сек

    Channel(s)_Original : 2 канала

    Расположение каналов : Front: L R

    Частота : 48,0 КГц

    Метод сжатия : С потерями

    Размер потока : 21,6 Мбайт (9%)

    Дата кодирования : UTC 2013-11-27 13:18:01

    Дата пометки : UTC 2013-11-27 13:18:01

    Полное имя : E:\Мои раздачи\Видеокурсы по автомобилям\Tuning2014\19_Отключаем лямбда-регулирование.mp4

    Профиль формата : Base Media / Version 2

    Идентификатор кодека : mp42

    Размер файла : 56,6 Мбайт

    Продолжительность : 6 м. 59 с.

    Режим общего битрейта : Переменный

    Общий поток : 1131 Кбит/сек

    Дата кодирования : UTC 2013-11-25 14:35:54

    Дата пометки : UTC 2013-11-25 14:35:54

    Формат/Информация : Advanced Video Codec

    Профиль формата : High@L4.0

    Параметр CABAC формата : Да

    Параметр ReFrames формата : 4 кадра

    Идентификатор кодека : avc1

    Идентификатор кодека/Информация : Advanced Video Coding

    Продолжительность : 6 м. 59 с.

    Вид битрейта : Переменный

    Битрейт : 1000 Кбит/сек

    Максимальный битрейт : 1800 Кбит/сек

    Ширина : 1280 пикселей

    Высота : 1024 пикселя

    Соотношение сторон : 5:4

    Режим частоты кадров : Постоянный

    Частота кадров : 15,000 кадров/сек

    Стандарт вещания : NTSC

    Цветовое пространство : YUV

    Субдискретизация насыщенности : 4:2:0

    Битовая глубина : 8 бит

    Тип развёртки : Прогрессивная

    Размер потока : 50,0 Мбайт (88%)

    Дата кодирования : UTC 2013-11-25 14:35:54

    Дата пометки : UTC 2013-11-25 14:35:54

    Основные цвета : BT.709

    Характеристики трансфера : BT.709

    Коэффициенты матрицы : BT.709

    Формат/Информация : Advanced Audio Codec

    Профиль формата : LC

    Идентификатор кодека : 40

    Продолжительность : 6 м. 59 с.

    Вид битрейта : Постоянный

    Битрейт : 128 Кбит/сек

    Channel(s)_Original : 2 канала

    Расположение каналов : Front: L R

    Частота : 48,0 КГц

    Метод сжатия : С потерями

    Размер потока : 6,40 Мбайт (11%)

    Дата кодирования : UTC 2013-11-25 14:35:54

    Дата пометки : UTC 2013-11-25 14:35:54

    Программу для чип тюнинга скачать

    Программу для чип тюнинга скачать

    Программу для чип тюнинга скачать

    Программу для чип тюнинга скачать

    Программу для чип тюнинга скачать

    Программу для чип тюнинга скачать

    Программу для чип тюнинга скачать

    Программу для чип тюнинга скачать

    Программу для чип тюнинга скачать

    Программу для чип тюнинга скачать

    Если вы не видите кнопку СКАЧАТЬ - отключите резалку рекламы у себя в браузере и обновите страницу.

    Программу для чип тюнинга скачать

    торрент Школа автомобильной диагностики Алексея Пахомова:«Чип-тюнинг: базовые понятия» Россия (CamRip) (2014)

    02_Устройство блоков управления.mp4 (163.82 MB)

    03_K-line и CAN.mp4 (87.16 MB)

    04_Шестнадцатеричная система.mp4 (105.64 MB)

    05_Структура прошивки.mp4 (102.26 MB)

    06_Процесс чип-тюнинга.mp4 (98.93 MB)

    07_Блоки управления ВАЗ.mp4 (335.80 MB)

    08_Установка и настройка CombiLoader.mp4 (127.03 MB)

    09_ЭБУ с процессором С509.mp4 (68.65 MB)

    10_BOSCH 797.mp4 (68.48 MB)

    11_Процессоры_C16х_ST10.mp4 (65.58 MB)

    12_Дополнительные модули.mp4 (76.01 MB)

    13_Программирование по шине CAN.mp4 (132.24 MB)

    14_Перекалибровка и безопасность.mp4 (78.82 MB)

    15_Холостой ход и принудительный холостой ход.mp4 (204.19 MB)

    16_Рабочие режимы.mp4 (107.69 MB)

    17_Двигатели с ГБО.mp4 (158.25 MB)

    18_Калибровки BOSCH 7.9.7.mp4 (246.46 MB)

    19_Отключаем лямбда-регулирование.mp4 (56.60 MB)