Софт-Архив

скачать игру трансформеры эпоха истребления через торрент

Рейтинг: 4.1/5.0 (233 проголосовавших)

Категория: Торрент-файлы

Описание

Скачать торрент Трансформеры: Эпоха истребления

Трансформеры: Эпоха истребления

Название: Трансформеры: Эпоха истребления

Оригинальное название: Transformers: Age Of Extinction

Год выхода: 2014

Жанр: фантастика, боевик, приключения

Режиссер: Майкл Бэй / Michael Bay

В ролях: Марк Уолберг, Никола Пельтц, Джек Рейнор, Стэнли Туччи, Келси Грэммер, Титус Уэлливер, ТиДжей Миллер, Ли Бинбин, София Майлс, Питер Каллен

Автоботы и десептиконы оставили человечество собирать планету по кусочкам. Между тем группа могущественных бизнесменов и гениальных ученых пытается извлечь уроки из ошибок прошлого и улучшить технологии до такой степени, чтобы выйти за пределы контролируемого ранее. В это время другая группа — древних мощных трансформеров — берет Землю под прицел.

Перевод: Профессиональный (полное дублирование) [Лицензия]

Качество видео: HDRip

Формат файла: AVI

Видео: 720x384 (1.88:1), 23.976 fps, XviD build 50

1599 kbps avg, 0.24 bit/pixel

Аудио: 48 kHz, AC3 Dolby Digital, 2/0 (L,R) ch,

скачать игра трансформеры эпоха истребления через торрент:

  • скачать
  • скачать
  • Другие статьи

    Скачать торрент Трансформеры: Эпоха истребления

    Скачать торрент Трансформеры: Эпоха истребления / Transformers: Age of Extinction (2014) DVD5

    Скачать игру трансформеры эпоха истребления через торрент

    Скачать игру трансформеры эпоха истребления через торрент

    Название: Трансформеры: Эпоха истребления

    Оригинальное название: Transformers: Age of Extinction

    Режиссер: Майкл Бэй

    В ролях: Марк Уолберг, Никола Пельтц, Джек Рейнор, Стэнли Туччи, Келси Грэммер, Титус Уэлливер, ТиДжей Миллер, Ли Бинбин, София Майлс, Питер Каллен

    Автоботы и десептиконы оставили человечество собирать планету по кусочкам. Между тем группа могущественных бизнесменов и гениальных ученых пытается извлечь уроки из ошибок прошлого и улучшить технологии до такой степени, чтобы выйти за пределы контролируемого ранее. В это время другая группа — древних мощных трансформеров — берет Землю под прицел.

    Студия: Di Bonaventura Pictures, Paramount Pictures

    Продолжительность: 158 мин. / 02:38

    Перевод: полное дублирование

    Аудио 1: Dolby AC3, 6 ch, 48.0 KHz, 448 Kbps (английский)

    Аудио 2: Dolby AC3, 6 ch, 48.0 KHz, 384 Kbps (русский)

    Субтитры: русские, украинские, английские

    Скачать торрент Трансформеры: Эпоха истребления

    Скачать Трансформеры: Эпоха истребления / Transformers: Age of Extinction (2014) DVD5 торрент

    Скачать игру трансформеры эпоха истребления через торрент

    Скачать игру трансформеры эпоха истребления через торрент

    Название: Трансформеры: Эпоха истребления

    Оригинальное название: Transformers: Age of Extinction

    Режиссер: Майкл Бэй

    В ролях: Марк Уолберг, Никола Пельтц, Джек Рейнор, Стэнли Туччи, Келси Грэммер, Титус Уэлливер, ТиДжей Миллер, Ли Бинбин, София Майлс, Питер Каллен

    Автоботы и десептиконы оставили человечество собирать планету по кусочкам. Между тем группа могущественных бизнесменов и гениальных ученых пытается извлечь уроки из ошибок прошлого и улучшить технологии до такой степени, чтобы выйти за пределы контролируемого ранее. В это время другая группа — древних мощных трансформеров — берет Землю под прицел.

    Студия: Di Bonaventura Pictures, Paramount Pictures

    Продолжительность: 158 мин. / 02:38

    Перевод: полное дублирование

    Аудио 1: Dolby AC3, 6 ch, 48.0 KHz, 448 Kbps (английский)

    Аудио 2: Dolby AC3, 6 ch, 48.0 KHz, 384 Kbps (русский)

    Субтитры: русские, украинские, английские

    Трансформеры: Эпоха истребления

    Трансформеры: Эпоха истребления / Transformers: Age of Extinction (2014) WEB-DL 720p | Звук с TS

    Скачать игру трансформеры эпоха истребления через торрент

    Скачать игру трансформеры эпоха истребления через торрент

    Название: Трансформеры: Эпоха истребления

    Оригинальное название: Transformers: Age of Extinction

    Режиссёр: Майкл Бэй

    В ролях: Марк Уолберг, Никола Пельтц, Джек Рейнор, Стэнли Туччи, Келси Грэммер, Титус Уэлливер, ТиДжей Миллер, Ли Бинбин, София Майлс, Питер Каллен

    Озвучивание: Дублированное [Звук с TS]

    Качество: WEB-DL 720p

    Видео: 3860 kb/s, 1280x532

    Аудио: Russian: AC3, 192 kb/s (2 ch) / English: AC3, 384 kb/s (6 ch)

    Format version : Version 4 / Version 2

    File size : 5.23 GiB

    Duration : 2h 45mn

    Overall bit rate : 4 526 Kbps

    Encoded date : UTC 2014-09-16 07:58:17

    Writing application : mkvmerge v6.1.0 ('Old Devil') built on Mar 4 2013 09:10:42

    Writing library : libebml v1.3.0 + libmatroska v1.4.0

    Format/Info : Advanced Video Codec

    Format profile : Main@L3.1

    Format settings, CABAC : No

    Format settings, ReFrames : 2 frames

    Codec ID : V_MPEG4/ISO/AVC

    Duration : 2h 45mn

    Bit rate : 3 860 Kbps

    Width : 1 280 pixels

    Height : 532 pixels

    Display aspect ratio : 2.40:1

    Frame rate : 23.976 fps

    Color space : YUV

    Chroma subsampling : 4:2:0

    Bit depth : 8 bits

    Scan type : Progressive

    Stream size : 4.46 GiB (85%)

    Color primaries : BT.709-5, BT.1361, IEC 61966-2-4, SMPTE RP177

    Transfer characteristics : BT.709-5, BT.1361

    Matrix coefficients : BT.709-5, BT.1361, IEC 61966-2-4 709, SMPTE RP177

    Format/Info : Audio Coding 3

    Mode extension : CM (complete main)

    Format settings, Endianness : Big

    Codec ID : A_AC3

    Duration : 2h 45mn

    Bit rate mode : Constant

    Bit rate : 192 Kbps

    Channel(s) : 2 channels

    Channel positions : Front: L R

    Sampling rate : 48.0 KHz

    Bit depth : 16 bits

    Compression mode : Lossy

    Stream size : 227 MiB (4%)

    Format/Info : Audio Coding 3

    Mode extension : CM (complete main)

    Format settings, Endianness : Big

    Codec ID : A_AC3

    Duration : 2h 45mn

    Bit rate mode : Constant

    Bit rate : 384 Kbps

    Channel(s) : 6 channels

    Channel positions : Front: L C R, Side: L R, LFE

    Трансформеры: Эпоха истребления (2014) скачать торрент бесплатно

    Трансформеры: Эпоха истребления (2014) скачать торрент

    Скачать игру трансформеры эпоха истребления через торрент

    Скачать игру трансформеры эпоха истребления через торрент

    Оригинальное название: Transformers Sequel

    Год выхода: 2014

    Жанр: фантастика, боевик, приключения

    Режиссер: Майкл Бэй

    В ролях: Марк Уолберг, Никола Пельтц, Брентон Туэйтес

    Озвучивание: Дублированное [Чистый звук] Официальный

    Главный герой фильма Кейд и его дочь Тесса обладают одной важной находкой, благодаря которой они могут вернуть трансформеров обратно. Однако какая-то влиятельная «шишка» из правительства узнает об этом секрете. Теперь этот неизвестный человек хочет завладеть находкой Кейда, чтобы осуществить свои планы.

    Помимо этого, специально созданная группа по изучению последствий присутствия Десептиконов и Автоботов, в которую входят владельцы бизнеса и опытные ученые, пытается сделать выводы из прошлых ошибок и улучшить защиту планеты. Они стараются улучшить самые современные технологии еще больше.

    Однако наша планета снова не в безопасности. Дело в том, что на горизонте появляется новая группа трансформеров, более древних и сильных. Они хотят захватить нашу планету. Однако их противники до сих пор стараются оживить Гальватрона.