Софт-Архив

сита и рама скачать торрент

Рейтинг: 4.2/5.0 (213 проголосовавших)

Категория: Торрент-файлы

Описание

Скачать Сита и Рама

Сита и Рама / Рамаяна / Siya ke Ram (2015) HDTVRip [H.264] (Серии 1-3 из 300) [MP4|1920x1080]

Пиры будут получены при скачивании

Стаж: 2 года 2 месяца

Сита и рама скачать торрент

07-Дек-2015 01:08

Сита и рама скачать торрент

Жанр: Семейный, Исторический, Эпос

Режиссер: Aniruddh Pathak, Nikhil Sinha, Dharmesh Shah

Актеры: Ashish Sharma, Madirakshi Mundle, Yash Mistry, Ananya Agarwal, Vedant Sawant, Samarth Mishra, Pravisht Mishra, Karan Suchak, Sujay Reu, Snigdha Akolkar, Tanvi Madhyan, Hethvi Bhanushali, Hemant Choudhary, Prithvi Hatte

"Сита и Рама" рассказывает о великой божественной любви. Концепция сериала: "Как Сита воспринимала и любила Раму; это рассказ о Раме глазами Ситы". Сериал снимается по мотивам эпоса "Рамаяна". Планируется снять 300 серий.

Дата мировой премьеры: 16 ноября 2015

Качество видео: HDTVRip

Перевод: Одноголосый закадровый, любительский

Озвучка / Автор перевода: Яшодарани даси / Абхинанда дас

Видео: AVC/H.264, 1920x1080,

Аудио: AAC, 2 канала, 192 Кбит/сек

Mediainfo:

Полное имя : E:\ВИДЕО\Новые фильмы 2\Сита и Рама (1080p)\001 - Сита и Рама (1080p).mp4

Профиль формата : Base Media / Version 2

Идентификатор кодека : mp42 (mp42/isom)

Размер файла : 1,77 Гбайт

Продолжительность : 54 м.

Режим общего битрейта : Переменный

Общий поток : 4695 Кбит/сек

Дата кодирования : UTC 2015-11-26 18:06:48

Дата пометки : UTC 2015-11-26 18:07:43

Программа кодирования : X Lossless Decoder 20141129a, QuickTime 7.7.3, CBR 192 kbps

Формат/Информация : Advanced Video Codec

Параметр CABAC формата : Да

Параметр ReFrames формата : 1 кадр

Параметр GOP формата : M=1, N=25

Идентификатор кодека : avc1

Идентификатор кодека/Информация : Advanced Video Coding

Продолжительность : 54 м.

Вид битрейта : Постоянный

Битрейт : 4500 Кбит/сек

Ширина : 1920 пикселей

Высота : 1080 пикселей

Соотношение сторон : 16:9

Режим частоты кадров : Постоянный

Частота кадров : 25,000 кадров/сек

Цветовое пространство : YUV

Субдискретизация насыщенности : 4:2:0

Битовая глубина : 8 бит

Тип развёртки : Прогрессивная

Размер потока : 1,70 Гбайт (96%)

Дата кодирования : UTC 2015-11-26 18:06:48

Дата пометки : UTC 2015-11-26 18:07:42

Формат/Информация : Advanced Audio Codec

Профиль формата : LC

Идентификатор кодека : 40

Продолжительность : 54 м.

Вид битрейта : Переменный

Битрейт : 192 Кбит/сек

Максимальный битрейт : 203 Кбит/сек

Каналы : 2 канала

Расположение каналов : Front: L R

Частота : 44,1 КГц

Частота кадров : 43,066 кадра/сек (1024 spf)

Метод сжатия : С потерями

Размер потока : 74,2 Мбайт (4%)

Alternate group : 1

Дата кодирования : UTC 2015-11-26 18:06:48

Дата пометки : UTC 2015-11-26 18:07:43

Сита и рама скачать торрент Сита и рама скачать торрент Сита и рама скачать торрент Сита и рама скачать торрент

Дополнительные скриншоты:

Сита и рама скачать торрент Сита и рама скачать торрент Сита и рама скачать торрент

Исправили релиз? - напишите об этом в ЛС со ссылкой на него.

Текущее время: Сегодня 08:01

Часовой пояс: GMT + 4

Вы не можете отвечать на сообщения

Вы не можете редактировать свои сообщения

Вы не можете удалять свои сообщения

Вы не можете голосовать в опросах

Вы не можете прикреплять файлы к сообщениям

Вы можете скачивать файлы

Search Powered by Sphinx

Powered by TorrentPier II © Meithar, TorrentPier II Team

сита и рама скачать торрент:

  • скачать
  • скачать
  • Другие статьи

    Скачать фильм Рамараджья

    Скачать фильм Рамараджья / Sri Rama Rajyam (Бапу / Bapu) [2011, драма, HDRip] VO - торрент

    Скачать фильм бесплатно через торрент. Фильм доступен на нашем торрент-трекере бесплатно, без регистрации и смс.

    Сита и рама скачать торрент

    Перевод: Любительский (одноголосый закадровый) Анна Понтус [br] Cубтитры: Pусские hardsub (неотключаемые)

    Формат: HDRip , AVI, XviD, MP3

    Режиссер: Бапу / Bapu

    Описание: После того, как Сита провела год в плену у Раваны и была освобождена Рамой - ей назначено было пройти особый обряд, чтобы рассеять какие бы то ни было кривотолки о её невинности, после того, как она находилась в близости Раваны. Она должна была пройти через огонь. И она это сделала, потому что сам бог Агни (бог огня) вывел её из пекла костра невредимой. После этого настало время мира и процветания, которое в Рамаяне называется Шри Рамараджья - т.е. время царствования Рамы. Но во времена его царствования законы морали были очень высоки. И когда обнаружилось, что Сита беременна, родственники Рамы и его подданные начали поговаривать, что Рама взял в жёны нечистую женщину, осквернённую другим мужчиной. Поэтому все дети от этого брака принесут только вред их царству, которое в то время было по всей Земле. И отдавать власть отпрыскам такого брака - значило, по их мнению, подвергать опасности благополучие всех людей планеты.

    Поэтому беременная Сита была просто изгнана в лес. Где оказалась совсем одна в таком положении. Но божественные силы вступились в её защиту. Она была принята в ашраме великого Мудреца. Где её беременность разрешилась двумя великими сыновьями: Лавой и Кушем, которые были наделены великой силой. Не выдержав разлуки с Рамой - Сита совершает обряд сати, сгорев в мистическом огне.

    Сита и Рама (720) (2015-2017) (01-128)

    Сита и Рама (720) (2015-2017) (01-128)

    Стаж: 5 лет 5 месяцев

    Откуда: Санкт-Петерб ург

    26-Янв-2017 21:33

    Видео с разрешением 1280 на 720

    01-Апр-2017 20:48 (спустя 2 месяца 5 дней)

    Стаж: 5 лет 5 месяцев

    Откуда: Санкт-Петерб ург

    03-Апр-2017 09:47 (спустя 1 день 12 часов)

    04-Апр-2017 12:06 (спустя 1 день 2 часа)

    Стаж: 5 лет 5 месяцев

    Откуда: Санкт-Петерб ург

    17-Май-2017 11:09 (спустя 1 месяц 12 дней)

    Стаж: 5 лет 5 месяцев

    Откуда: Санкт-Петерб ург

    11-Июл-2017 09:43 (спустя 1 месяц 24 дня)

    Стаж: 3 года 10 месяцев

    11-Авг-2017 16:24 (спустя 1 месяц)

    Стаж: 5 лет 5 месяцев

    Откуда: Санкт-Петерб ург

    11-Авг-2017 20:44 (спустя 4 часа)

    Текущее время: 29-Авг 08:18

    Часовой пояс: UTC + 4

    Вы не можете отвечать на сообщения

    Вы не можете редактировать свои сообщения

    Вы не можете удалять свои сообщения

    Вы не можете голосовать в опросах

    Вы не можете прикреплять файлы к сообщениям

    Вы можете скачивать файлы

    Сайт не предоставляет электронные версии произведений, а занимается лишь коллекционированием и каталогизацией ссылок, присылаемых и публикуемых на форуме нашими читателями. Если вы являетесь правообладателем какого-либо представленного материала и не желаете, чтобы ссылка на него находилась в нашем каталоге, свяжитесь с нами, и мы незамедлительно удалим ее. Файлы для обмена на трекере предоставлены пользователями сайта, и администрация не несет ответственности за их содержание. Просьба не заливать файлы, защищенные авторскими правами, а также файлы нелегального содержания!

    Сита и Рама

    Сита и Рама / Рамаяна / Siya ke Ram (2015) HDTVRip [H.264] (Серии 1-96 из 300) [MP4|1920x1080]

    Magnet-ссылка (альтернативная ссылка для скачивания файла)

    Сита и рама скачать торрент

    Производство: Индия / StarPlus

    Жанр: Семейный, Исторический, Эпос

    "Сита и Рама" рассказывает о великой божественной любви. Концепция сериала: "Как Сита воспринимала и любила Раму; это рассказ о Раме глазами Ситы". Сериал снимается по мотивам эпоса "Рамаяна". Планируется снять 300 серий.

    Перевод: Одноголосый закадровый, любительский

    Озвучка / Автор перевода: Яшодарани даси / Абхинанда дас

    Аудио: AAC, 2 канала, 192 Кбит/сек

    Сита и рама скачать торрент

    Добавлены серии по 96.

    Код: выделить все

    Полное имя : E:\ВИДЕО\Новые фильмы 2\Сита и Рама (1080p)\001 - Сита и Рама (1080p).mp4

    Профиль формата : Base Media / Version 2

    Идентификатор кодека : mp42 (mp42/isom)

    Размер файла : 1,77 Гбайт

    Продолжительность : 54 м.

    Режим общего битрейта : Переменный

    Общий поток : 4695 Кбит/сек

    Дата кодирования : UTC 2015-11-26 18:06:48

    Дата пометки : UTC 2015-11-26 18:07:43

    Программа кодирования : X Lossless Decoder 20141129a, QuickTime 7.7.3, CBR 192 kbps

    Формат/Информация : Advanced Video Codec

    Профиль формата : Main@L4

    Параметр CABAC формата : Да

    Параметр ReFrames формата : 1 кадр

    Параметр GOP формата : M=1, N=25

    Идентификатор кодека : avc1

    Идентификатор кодека/Информация : Advanced Video Coding

    Продолжительность : 54 м.

    Вид битрейта : Постоянный

    Битрейт : 4500 Кбит/сек

    Ширина : 1920 пикселей

    Высота : 1080 пикселей

    Соотношение сторон : 16:9

    Режим частоты кадров : Постоянный

    Частота кадров : 25,000 кадров/сек

    Цветовое пространство : YUV

    Субдискретизация насыщенности : 4:2:0

    Битовая глубина : 8 бит

    Тип развёртки : Прогрессивная

    Размер потока : 1,70 Гбайт (96%)

    Дата кодирования : UTC 2015-11-26 18:06:48

    Дата пометки : UTC 2015-11-26 18:07:42

    Формат/Информация : Advanced Audio Codec

    Профиль формата : LC

    Идентификатор кодека : 40

    Продолжительность : 54 м.

    Вид битрейта : Переменный

    Битрейт : 192 Кбит/сек

    Максимальный битрейт : 203 Кбит/сек

    Каналы : 2 канала

    Расположение каналов : Front: L R

    Частота : 44,1 КГц

    Частота кадров : 43,066 кадра/сек (1024 spf)

    Метод сжатия : С потерями

    Размер потока : 74,2 Мбайт (4%)

    Alternate group : 1

    Дата кодирования : UTC 2015-11-26 18:06:48

    Дата пометки : UTC 2015-11-26 18:07:43

    Внимание! Раздача ведётся путём добавления новых серий; при каждом добавлении создаётся новый торрент.

    Чтобы начать докачку новой серии, пользователям необходимо сделать следующее:

    1. Остановить скачивание;

    2. Удалить старый торрент у себя из клиента (старые серии удалять не надо);

    3. Скачать новый торрент и запустить его у себя в клиенте вместо старого, при этом указать клиенту путь в старую папку куда и должно происходить скачивание новых серий. Ваш клиент при этом должен произвести хеширование (проверку) старой папки и будет докачивать только те серии, которых у вас ещё нет. Старые серии при этом не удаляются, а продолжают раздаваться! Eсли вы уже удалили старые серии, то предотвратить повторную закачку старых серий можно, отжав галочку в соответствующих местах при запуске нового торрента.

    Сита и Рама

    Сита и Рама / Рамаяна / Siya ke Ram (2015) HDTVRip [H.264] (Серии 1-110 из 300) [MP4|1920x1080]

    Сита и рама скачать торрент

    Жанр: Семейный, Исторический, Эпос

    Актеры: Ashish Sharma, Madirakshi Mundle, Yash Mistry, Ananya Agarwal, Vedant Sawant, Samarth Mishra, Pravisht Mishra, Karan Suchak, Sujay Reu, Snigdha Akolkar, Tanvi Madhyan, Hethvi Bhanushali

    "Сита и Рама" рассказывает о великой божественной любви. Концепция сериала: "Как Сита воспринимала и любила Раму; это рассказ о Раме глазами Ситы". Сериал снимается по мотивам эпоса "Рамаяна". Планируется снять 300 серий.

    Качество видео: HDTVRip

    Перевод: Одноголосый закадровый, любительский

    Озвучка / Автор перевода: Яшодарани даси / Абхинанда дас

    Аудио: AAC, 2 канала, 192 Кбит/сек

    Добавлены серии по 110.

    Чтобы начать докачку новой серии, пользователям необходимо сделать следующее:

    1. Остановить скачивание;

    2. Удалить старый торрент у себя из клиента (старые серии удалять не надо);

    3. Скачать новый торрент и запустить его у себя в клиенте вместо старого, при этом указать клиенту путь в старую папку куда и должно происходить скачивание новых серий. Ваш клиент при этом должен произвести хеширование (проверку) старой папки и будет докачивать только те серии, которых у вас ещё нет. Старые серии при этом не удаляются, а продолжают раздаваться! Eсли вы уже удалили старые серии, то предотвратить повторную закачку старых серий можно, отжав галочку в соответствующих местах при запуске нового торрента.