Софт-Архив

история жизни скачать торрент

Рейтинг: 4.8/5.0 (206 проголосовавших)

Категория: Торрент-файлы

Описание

Скачать фильм История Жизни (2014) HDTV через торрент

Скачать фильм История Жизни (7 серий из 7) / Life Story (BBC Television Centre) [2014, документальный, природа, животные, HDTVRip 1080p] VO - торрент

Скачать через торрент фильм вы можете, нажав на синюю кнопку. Фильм доступен на нашем торрент-трекере бесплатно, без регистрации и смс.

История жизни скачать торрентПеревод: Любительский (одноголосый), cубтитры : softsub (SRT) ( русские )

Формат: HDTVRip, MKV, H.264, AC3/AAC

Режиссер: BBC Television Centre

Продолжительность: 7 x

Описание: История Жизни, рассказанная Дэвидом Аттенборо, переносит нас в величайшее из всех приключений - путешествие по жизни.

Любое животное, ведомое инстинктом, озабочено тем, чтобы оставить после себя потомство, передать свои гены последующим поколениям. Быть может для них это своеобразная, связующая нить между прошлым и будущим. Путешествие по бурным водам жизни полно страданий, трудностей и самоотверженности. Порой их поведение непредсказуемо, изысканно утончённо и исполненно нежности. Но несмотря на брошенный ими вызов стихиям природы, они борются и побеждают, передавая свою стойкость характера последующим поколениям.

Этот многосерийный фильм об этапах становления в жизни каждого животного.

1. Первые шаги - First Steps

2. Взросление - Growing Up

4. Борьба за власть - Power

5. Брачные игры - Courtship

6. Родители - Parenthood

7. Полный цикл - The full circle

Видео: 1440x810 (16:9), 25.000 fps, AVC (x264), High@L4.1,

Русский (48.0 KHz, AC3, 6 ch, 640 Кбит/с),

Английский (48.0 KHz, AAC, 2 ch, 256 Кбит/с)

1 - 5 серии - Одноголосый (закадровый) - Ю. Онищенко (Logos71)

6 серия - субтитры (Burn in The USSR)

7 серия - Одноголосый (закадровый) - В. Курдов

Субтитры: русские (Burn in The USSR), русские (Logos71), английские

Complete name : BBC - Life Story (HDTVRip 810p, 2014)\1. Первые шаги - First Steps.mkv

Format version : Version 4 / Version 2

File size : 2.23 GiB

Duration : 58mn 30s

Overall bit rate : 5 466 Kbps

Movie name : BBC - Life Story (2014)

Encoded date : UTC 2015-02-07 17:07:24

Writing application : mkvmerge v7.5.0 ('Glass Culture') 64bit built on Jan 4 2015 16:48:44

Writing library : libebml v1.3.1 + libmatroska v1.4.2

_STATISTICS_WRITING_APP : mkvmerge v7.5.0 ('Glass Culture') 64bit built on Jan 4 2015 16:48:44

_STATISTICS_WRITING_DATE_UTC : 2015-02-07 17:07:24

_STATISTICS_TAGS : BPS DURATION NUMBER_OF_FRAMES NUMBER_OF_BYTES

Format/Info : Advanced Video Codec

Format profile : High@L4.1

Format settings, CABAC : Yes

Format settings, ReFrames : 6 frames

Codec ID : V_MPEG4/ISO/AVC

Duration : 58mn 30s

Width : 1 440 pixels

Height : 810 pixels

Display aspect ratio : 16:9

Frame rate mode : Constant

Frame rate : 25.000 fps

Color space : YUV

Chroma subsampling : 4:2:0

Bit depth : 8 bits

Scan type : Progressive

Writing library : x264 core 142 r2479 dd79a61

Encoding settings : cabac=1 / ref=6 / deblock=1:0:0 / analyse=0x3:0x113 / me=umh / subme=9 / psy=1 / psy_rd=1.00:0.00 / mixed_ref=1 / me_range=24 / chroma_me=1 / trellis=1 / 8x8dct=1 / cqm=0 / deadzone=21,11 / fast_pskip=0 / chroma_qp_offset=-2 / threads=3 / lookahead_threads=1 / sliced_threads=0 / nr=0 / decimate=1 / interlaced=0 / bluray_compat=0 / constrained_intra=0 / bframes=3 / b_pyramid=2 / b_adapt=1 / b_bias=0 / direct=1 / weightb=1 / open_gop=0 / weightp=2 / keyint=250 / keyint_min=25 / scenecut=40 / intra_refresh=0 / rc_lookahead=40 / rc=crf / mbtree=1 / crf=19.0 / qcomp=0.60 / qpmin=0 / qpmax=69 / qpstep=4 / ip_ratio=1.40 / aq=1:1.00

_STATISTICS_WRITING_APP : mkvmerge v7.5.0 ('Glass Culture') 64bit built on Jan 4 2015 16:48:44

_STATISTICS_WRITING_DATE_UTC : 2015-02-07 17:07:24

_STATISTICS_TAGS : BPS DURATION NUMBER_OF_FRAMES NUMBER_OF_BYTES

Format/Info : Audio Coding 3

Mode extension : CM (complete main)

Format settings, Endianness : Big

Codec ID : A_AC3

Duration : 58mn 30s

Bit rate mode : Constant

Bit rate : 640 Kbps

Channel(s) : 6 channels

Channel positions : Front: L C R, Side: L R, LFE

Sampling rate : 48.0 KHz

Bit depth : 16 bits

Compression mode : Lossy

Stream size : 268 MiB (12%)

Format/Info : Advanced Audio Codec

Format profile : LC

Codec ID : A_AAC

Duration : 58mn 30s

Channel(s) : 6 channels

Channel positions : Front: L C R, Side: L R, LFE

Sampling rate : 48.0 KHz

Compression mode : Lossy

Delay relative to video : 9ms

Codec ID : S_TEXT/UTF8

Codec ID/Info : UTF-8 Plain Text

Title : Burn in The USSR

Codec ID : S_TEXT/UTF8

Codec ID/Info : UTF-8 Plain Text

Codec ID : S_TEXT/UTF8

Codec ID/Info : UTF-8 Plain Text

История жизни скачать торрент

История жизни скачать торрент

История жизни скачать торрент

История жизни скачать торрент

Информация о торренте:

Скачан: 1486 раз

Статус: Проверен Зарегистрирован на трекере: 2015-06-11 19:38

история жизни скачать торрент:

  • скачать
  • скачать
  • Другие статьи

    История Жизни скачать торрент

    История Жизни / Life Story (Серии 1-6 из 6) [2014, документальн ый, BDRip 1080p] BBC

    История жизни скачать торрент

    Стаж: 7 лет 8 месяцев

    Aids · 17-Июн-15 21:11 (2 года 2 месяца назад, ред. 01-Ноя-15 14:43)

    Год выпуска : 2014

    Продолжительность: 6 х

    Перевод : Двухголосый закадровый, студия «Омикрон»

    В ролях: Дэвид Аттенборо / David Attenborough Описание : История Жизни, рассказанная Дэвидом Аттенборо, переносит нас в величайшее из всех приключений — путешествие по жизни. Любое животное, ведомое инстинктом, озабочено тем, чтобы оставить после себя потомство, передать свои гены последующим поколениям. Быть может для них это своеобразная, связующая нить между прошлым и будущим.

    Путешествие по бурным водам жизни полно страданий, трудностей и самоотверженности. Порой их поведение непредсказуемо, изысканно утончённо и исполнено нежности. Но несмотря на брошенный ими вызов стихиям природы, они борются и побеждают, передавая свою стойкость характера последующим поколениям. Тип релиза: BDRip 1080p

    Видео: 1920x1080 at 25.000 fps, x264@L4.1,

    Аудио: Russian: 48 kHz/16-bit, DTS, 3/2 (L,C,R,l,r) + LFE ch,

    Аудио 2: English: 48 kHz/24-bit, DTS, 3/2 (L,C,R,l,r) + LFE ch,

    Субтитры: Russian (Burn in The USSR), English

    Сэмпл Релиз: by DeTorquemada

    В первом эпизоде, животные преодолеть первый большой барьер - выжить в младенчестве.

    Ещё не летающие гусята сталкиваются с большой проблемой в самом начале своей жизни. Для того чтобы найти пищу, они должны прыгнуть вниз с уступа на скале высотой в 120 метров, где они вылупились.

    Молодые котики в Новой Зеландии нашли идеальное место, чтобы узнать, как избежать хищников, таких как касатки. Вместо того чтобы купаться в море они плывут верх по речному потоку, ведущему в лес, который заканчивается в волшебном лягушатнике ниже водопада. Здесь молодняк вместе учиться плавать в полной безопасности.

    Мало изученный тушканчик, глубоко в пустыне Гоби, имеет самые большие уши по сравнению с размерами его тела, чем у любого животного на Земле. Но только в свою первую ночь, он узнает, как использовать свой удивительный слух, чтобы добыть насекомых в темноте.

    Птенцы альбатросов отправляются в свой первый рейс с островов, где они родились, но огромные тигровые акулы поджидают любого, что совершит ошибку и на земле и на море. Эпизод 2: Взросление / Episode 2: Growing Up

    На пути к взрослой жизни, у всех животных наступает момент, когда они должны обрести самостоятельность. В отсутствии родителей, они должны научиться выживать в опасном мире. На данном этапе жизни каждый маленький успех может стать вопросом жизни и смерти. Эпизод 3: Дом / Episode 3: Home

    Животные должны найти место для проживания, которое обеспечивало бы их всем необходимым для жизни и являлось укрытием от природных явлений и убежищем от врагов.

    Хорошие жильё редко и конкуренция за него может быть очень велика. Найти дом это одно, но защитить его это совсем другое.

    Домом для стаи африканских охотничьих собак являются обширные равнины в Замбии. Но они далеко не безопасны. Стая должна защищать свой молодняк, от хищников вступая в бой с вековым врагом гиенами.

    Раки-отшельники на изолированном тропическом острове делают свои дома в пустых раковинах улиток. Но ощущается острая нехватка жилья. Когда на берег смывает новые раковины, то крабы образуют упорядоченную очередь, в зависимости от размера. Это жильцы цепи. Когда цепь дополняют, краб движется в недавно освободившеюся оболочку перед ним в линии.

    Шимпанзе живут на краю пустыни Сахара. Они могут выжить, лишь зная, как найти воду, даже в период самых экстремальных засух. Старейшины ведут стаю в тяжелый поход к высохшему руслу реки. Оказавшись там, они точно знают, где копать, чтобы добыть воду. Эпизод 4: Борьба за власть / Episode 4: Power

    Animals must try to gain a position of power in their worlds. The most powerful have best access to food and water, and they are also the most attractive to the opposite sex.

    An orphaned, friendless, young chimp leaves his playful youth behind as he attempts to climb the social ladder. His troop is ruled by big, aggressive males. His first attempt to join them ends in a beating, but making his first friend changes his life. Together, they hunt for small mammals using spears, and share the spoils. It's an act that changes them from friends to allies.

    In meerkat society knowledge is power, and knowing how to deal with a venomous snake is essential for any youngster who wants to be a player in its world.

    Few young, male kangaroos will ever get to occupy the top spot in their world. The only way is to fight and beat the 8-foot ruling male in a brutal boxing match. Эпизод 5: Брачные игры / Episode 5: Courtship

    The competition to breed has created both the most extraordinary beauty and the most violent battles seen in nature. Waved albatross pair for life and spend hours canoodling with each other. But for a male peacock jumping spider one wrong move in his dazzling courtship routine may well prove fatal.

    A male flame bowerbird creates a stick sculpture decorated with shells and berries to impress a mate. Even that isn't enough. He then uses it as a backdrop to show off his vivid colours in a dazzling dance. But things don't go to plan as his bower is destroyed by mischievous youngsters and a rival male.

    But the most extraordinary display of all is created by a tiny, drab male pufferfish. He builds a spectacular submarine 'crop circle' in the sand. It's the most perfect and complex structure created by any animal. The crop circles were only discovered in southern Japan in 1995 and the fish architect was only identified in 2011. Эпизод 6: Родители / Episode 6: Parenthood

    In the final episode of Life Story, animals attempt to rear their offspring. This takes extraordinary commitment, and a parent may even need to risk its own life for its offspring. A female turtle, returning to the island where she was born 30 years ago, hauls herself up the beach to lay her eggs in a safe place above the tide line. But her commitment may prove her undoing. The low tide traps her on the island behind a wall of coral. If she cannot climb over it the heat of the sun will kill her.

    A mother bonobo chimpanzee lavishes care on her son for five years, deep in the Congo forest. Their bond will endure for the rest of her life. She will teach him how to survive in the jungle. One of her most important lessons is showing him a hidden forest pool where they harvest lilies rich in minerals essential for their good health.

    A mother zebra must decide where to lead her young foal across the Mara river so that they can reach new grazing grounds. Should she cross where they will face predators such as crocodiles? Or should she lead her foal through treacherous rapids? Her foal's life may rest on the decision she makes.

    In a touching scene elephants delicately stroke the bones of an ancestor. We cannot know what they are thinking, but perhaps like humans they have a sense of a shared history? It is a communal experience that appears to draw the family members closer together.

    Unique ID : 249863401030213607943620972933650535349 (0xBBF9F0CB7E22E5FEA399FD96B11B53B5)

    Complete name : Z:\Life.Story.2014.S01.1080p.BluRay.Rus.Eng.HDCLUB\Life.Story.2014.S01E01.First.Steps.1080p.BluRay.Rus.Eng.HDCLUB.mkv

    Format version : Version 4 / Version 2

    File size : 8.95 GiB

    Duration : 58mn 14s

    Overall bit rate : 22.0 Mbps

    Movie name : Create by DeTorquemada for HDCLUB

    Encoded date : UTC 2015-06-17 13:43:25

    Writing application : mkvmerge v7.9.0 ('Birds') 64bit

    Writing library : libebml v1.3.1 + libmatroska v1.4.2

    Format/Info : Advanced Video Codec

    Format profile : High@L4.1

    Format settings, CABAC : Yes

    Format settings, ReFrames : 4 frames

    Codec ID : V_MPEG4/ISO/AVC

    Duration : 58mn 14s

    Bit rate : 18.5 Mbps

    Width : 1 920 pixels

    Height : 1 080 pixels

    Display aspect ratio : 16:9

    Frame rate mode : Constant

    Frame rate : 25.000 fps

    Color space : YUV

    Chroma subsampling : 4:2:0

    Bit depth : 8 bits

    Scan type : Progressive

    Stream size : 7.54 GiB (84%)

    Title : История Жизни. Эпизод 1: Первые шаги / Life Story. Episode 1: First Steps (2014) - Release for HDCLUB

    Writing library : x264 core 142 r2491 24e4fed

    Encoding settings : cabac=1 / ref=4 / deblock=1:-3:-3 / analyse=0x3:0x133 / me=umh / subme=10 / psy=1 / psy_rd=1.00:0.00 / mixed_ref=1 / me_range=48 / chroma_me=1 / trellis=2 / 8x8dct=1 / cqm=0 / deadzone=21,11 / fast_pskip=1 / chroma_qp_offset=-2 / threads=6 / lookahead_threads=1 / sliced_threads=0 / nr=0 / decimate=1 / interlaced=0 / bluray_compat=0 / constrained_intra=0 / bframes=9 / b_pyramid=2 / b_adapt=2 / b_bias=0 / direct=3 / weightb=1 / open_gop=0 / weightp=2 / keyint=250 / keyint_min=25 / scenecut=40 / intra_refresh=0 / rc_lookahead=150 / rc=crf / mbtree=0 / crf=16.3 / qcomp=0.78 / qpmin=0 / qpmax=69 / qpstep=4 / vbv_maxrate=50000 / vbv_bufsize=62500 / crf_max=0.0 / nal_hrd=none / filler=0 / ip_ratio=1.20 / pb_ratio=1.10 / aq=1:0.75

    Format/Info : Digital Theater Systems

    Format settings, Endianness : Big

    Codec ID : A_DTS

    Duration : 58mn 14s

    Bit rate mode : Constant

    Bit rate : 1 509 Kbps

    Channel(s) : 6 channels

    Channel positions : Front: L C R, Side: L R, LFE

    Sampling rate : 48.0 KHz

    Bit depth : 16 bits

    Compression mode : Lossy

    Stream size : 629 MiB (7%)

    Title : 48KHz/16-bit, DTS, 3/2 (L,C,R,l,r) + LFE ch, 1509 kbps - Двухголосый закадровый, студия "Омикрон"

    Format/Info : Digital Theater Systems

    Format settings, Endianness : Big

    Codec ID : A_DTS

    Duration : 58mn 14s

    Bit rate mode : Constant

    Bit rate : 1 509 Kbps

    Channel(s) : 6 channels

    Channel positions : Front: L C R, Side: L R, LFE

    Sampling rate : 48.0 KHz

    Bit depth : 24 bits

    Compression mode : Lossy

    Stream size : 629 MiB (7%)

    Title : 48KHz/24-bit, DTS, 3/2 (L,C,R,l,r) + LFE ch, 1509 kbps - Дэвид Аттенборо / David Attenborough

    Codec ID : S_TEXT/UTF8

    Codec ID/Info : UTF-8 Plain Text

    Title : Subtitles/Captions (Burn in the USSR)

    Сериал История жизни

    • История жизни скачать торрент
    • История жизни скачать торрент
    • История жизни скачать торрент
    • История жизни скачать торрент
    • История жизни скачать торрент
    • История жизни скачать торрент
    • История жизни скачать торрент
    • История жизни скачать торрент
    • История жизни скачать торрент
    • История жизни скачать торрент
    • История жизни скачать торрент
    • История жизни скачать торрент
    • История жизни скачать торрент
    • История жизни скачать торрент
    • История жизни скачать торрент
    • История жизни скачать торрент
    • История жизни скачать торрент
    • История жизни скачать торрент
    • История жизни скачать торрент
    • История жизни скачать торрент
    • История жизни скачать торрент
    • История жизни скачать торрент
    • История жизни скачать торрент
    • История жизни скачать торрент
    • История жизни скачать торрент
    • История жизни скачать торрент
    • История жизни скачать торрент
    • История жизни скачать торрент
    • История жизни скачать торрент
    • История жизни скачать торрент
    • История жизни скачать торрент
    • История жизни скачать торрент
    • История жизни скачать торрент
    • История жизни скачать торрент
    • История жизни скачать торрент
    • История жизни скачать торрент
    • История жизни скачать торрент
    • История жизни скачать торрент
    • История жизни скачать торрент
    • История жизни скачать торрент
    • История жизни скачать торрент
    • История жизни скачать торрент
    • История жизни скачать торрент
    • История жизни скачать торрент
    • История жизни скачать торрент
    • История жизни скачать торрент
    • История жизни скачать торрент
    • История жизни скачать торрент

    История жизни — Life Story (2014)

    История жизни скачать торрент

    Год выпуска: 2014

    Продолжительность: 7+ выпусков

    Перевод: Любительский (Одноголосый)

    В ролях: Дэвид Аттенборо

    Описание Сериала: Грандиозный, документальный сериал об этапах становления в жизни каждого животного. Любое животное ведомое инстинктом стремиться оставить после себя потомство, передать свои гены последующим поколениям. Быть может для них это своеобразная, связующая нить между прошлым и будущим. Путешествие по бурным водам жизни полна страданий, трудностей и отваги самоотверженности. Порой их поведение не предсказуемо, изысканно утончённо и исполненно нежности. Но не смотря на брошенный им вызов стихиями природы, они борются и побеждают, передавая свою стойкость характера будущим поколениям.

    Поделиться ссылкой в социальных сетях:

    История жизни (Серии: 1-4 из 4)

    История жизни (Серии: 1-4 из 4) / History of life [2012, Документальный, научно-познавательный, природа, SATRip] - Скачать торрент бесплатно

    Стелс » 31 авг 2013, 01:01

    История жизни (Серии: 1-4 из 4) / History of life [2012, Документальный, научно-познавательный, природа, SATRip] - Скачать торрент

    Оригинальное название : History of life

    Страна : Южная Корея, NHK

    Жанр : Документальный, научно-познавательный, природа

    Продолжительность : 4 х

    Режиссёр : Ким Син Джун, Ким Хин Юн

    Описание : Сериал южно-корейских кинематографистов повествует о зарождении и эволюции растительного и животного мира на планете Земля.

    Формат файла : AVI

    Видео кодек : XviD

    Аудио кодек : AC3

    1895 Кбит/с, 720x400

    Аудио : AC3, 2 ch, 192 Кбит/с

    Невозможно представить себе окружающий мир без растений - наших верных и молчаливых зеленых друзей. Каждый глоток воздуха, каждая крошка пищи подарены нам растениями. Они создают на Земле условия для существования всех живых организмов .

    2 Серия. Зачем динозаврам оперенье? / The Story of the Feaver

    Что может быть общего у динозавров и птиц? Перья - удивительное изобретение природы. После того, как в Китае были найдены множественные окаменелые останки пернатых динозавров, ученые выдвинули гипотезу, что динозавры могли быть предками птиц .

    3 Серия. Из моря на сушу и обратно / The Landing

    Разница между морем и сушей настолько велика, что переход из одной среды в другую кажется невозможным. Тем не менее переселение из моря на сушу - неотъемлемая часть истории жизни на Земле. Находки палеонтологов поведают нам историю о том, как первые существа ступили из воды на землю.

    4 Серия. Уходят одни, приходят другие. / Extinction: An End and New Beginning

    За четыре миллиарда лет жизни на Земле произошло пять массовых вымираний. Одни виды вымирали, потому что не могли приспособиться к изменившимся условиям. Другие гибли вследствие беспрецедентных катаклизмов. Но вымирание одного вида открывает возможности для другого.