Софт-Архив

Скачать Торрент Нация Мечтателей

Рейтинг: 4.2/5.0 (104 проголосовавших)

Категория: Торрент-файлы

Описание

Скачать торрент Нация мечтателей

Нация мечтателей

Название: Нация мечтателей

Оригинальное название: Daydream Nation

Год выхода: 2010

Жанр: Драма, мелодрама

Режиссер: Майкл Голдбах

В ролях: Кэт Деннингс, Рис Томпсон, Джош Лукас, Энди МакДауэлл, Рэйчел Блэнчард, Наташа Калис, Куинн Лорд, Калум Уорти, Кэти Боланд, Женевьев Бешнер

Кэролайн переезжает в маленький городок и поступает в новую школу. В нее влюбляется одноклассник, но Кэролайн предпочитает ему учителя. Секс, наркотики, модная музыка,- молодежь живет в своем мире, а в городке появляется маньяк и происходит пожар на местном заводе.

Студия: Lila 9th Productions, Screen Siren Pictures Inc., The Film Farm

Перевод: Профессиональный двухголосый, любительский одноголосый

Видео: 1700 Кбит/с, 1024x576, 23.976 кадр/с

Аудио #1: Русский (AC3, 2 ch, 192 Кбит/с) / Профессиональный двухголосый (НТВ+)

Аудио #2: Русский (AC3, 6 ch, 448 Кбит/с) / Любительский одноголосый (zamez)

Аудио #3: Английский (AC3, 6 ch, 448 Кбит/с)

Субтитры: Русские (alex-kam), английские (SDH)

скачать торрент нация мечтателей:

  • скачать
  • скачать
  • Другие статьи

    Скачать торрент нация мечтателей

    Нация мечтателей / Daydream Nation (2010) BDRip от Rulya74 | P2. L1

    Нация мечтателей / Daydream Nation (2010) BDRip

    Скачать торрент нация мечтателей

    Название: Нация мечтателей

    Оригинальное название: Daydream Nation

    Год выхода: 2010

    Жанр: драма, мелодрама

    Режиссер: Майкл Голдбах

    В ролях: Кэт Деннингс, Рис Томпсон, Джош Лукас, Энди МакДауэлл, Рейчел Бланчард, Наташа Калис, Куинн Лорд, Калум Уорти, Кэти Боланд, Женевьев Бешнер

    Городская девушка приезжает в маленький городок и впутывается в опасный любовный треугольник, разрываясь между своим школьным учителем и симпатичным одноклассником.

    Студия: Screen Siren Pictures, The Film Farm, Lila 9th Productions

    Перевод: Профессиональный (двухголосый закадровый) НТВ+ + Любительский (одноголосый закадровый) zamez + Оригинал (Английский)

    Видео: 720x400, 23.976 fps, XviD MPEG-4

    1862 kbps avg, 0.27 bit/pixel

    Audio #1: 48 kHz, AC3 Dolby Digital, 2/0 (L,R) ch,

    192 kbps - Профессиональный (двухголосый закадровый) НТВ+

    Audio #2: 48 kHz, AC3 Dolby Digital, 3/2 (L,C,R,l,r) + LFE ch,

    448 kbps - Любительский (одноголосый закадровый) zamez

    Audio #3: 48 kHz, AC3 Dolby Digital, 3/2 (L,C,R,l,r) + LFE ch,

    Скачать фильм Нация мечтателей (2010) через торрент

    Нация мечтателей

    Оригинальное название: Daydream Nation

    Возраст: зрителям, достигшим 18 лет

    Продолжительность: 98 мин. / 01:38

    Скачать фильм «Нация мечтателей» через торрент бесплатно

    Качество: BDRip 1080p

    Видео: MPEG-4 AVC, 9878 Кбит/с, 1920х1080, 23.976 кадр/с

    Аудио #1: Русский (AC3, 2 ch, 192 Кбит/с) Профессиональный двухголосый («HTB+»)

    Аудио #2: Русский (AC3, 6 ch, 448 Кбит/с) Любительский одноголосый (Вячеслав zamez)

    Аудио #3: Английский (AC3, 6 ch, 448 Кбит/с) Оригинал

    Перевод: Профессиональный двухголосый, любительский одноголосый

    Субтитры: Русские, английские

    Скачать торрент нация мечтателей Скачать торрент нация мечтателей

    Качество: BDRemux 1080p

    Видео: MPEG-4 AVC, 23686 Кбит/с, 1920x1080

    Аудио 1: AC3 / 2.0 / 48 kHz / 192 kbps / 16 bits |DVO| - НТВ+

    Аудио 2: AC3 / 5.1 / 48 kHz / 448 kbps / 16 bits |VO| -zamez по переводу alex-kam

    Аудио 3: DTS-HD Master Audio / 5.1 / 48 kHz / 3463 kbps / 24 bits (DTS Core: 5.1 / 48 kHz / 1510 kbps / 24 bits) |original|

    Перевод: Профессиональный двухголосый, любительский одноголосый

    Субтитры: Русские, английские

    Скачать торрент нация мечтателей Скачать торрент нация мечтателей

    Перевод: Профессиональный двухголосый, любительский одноголосый

    Видео: 1700 Кбит/с, 1024x576, 23.976 кадр/с

    Аудио #1: Русский (AC3, 2 ch, 192 Кбит/с) / Профессиональный двухголосый (НТВ+)

    Аудио #2: Русский (AC3, 6 ch, 448 Кбит/с) / Любительский одноголосый (zamez)

    Аудио #3: Английский (AC3, 6 ch, 448 Кбит/с)

    Субтитры: Русские (alex-kam), английские (SDH)

    Видео: Идентификатор : 1 Формат : AVC Формат/Информация : Advanced Video Codec Профиль формата : High@L4.1 Параметр CABAC формата : Да Параметр ReFrames формата : 9 кадров Идентификатор кодека : V_MPEG4/ISO/AVC Продолжительность : 1 ч. 38 м. Битрейт : 1700 Кбит/сек Ширина : 1024 пикселя Высота : 576 пикселей Соотношение сторон : 16:9 Режим частоты кадров : Постоянный Частота кадров : 23,976 кадра/сек Цветовое пространство : YUV Субдискретизация насыщенности : 4:2:0 Битовая глубина : 8 бит Тип развёртки : Прогрессивная Бит/(Пиксели*Кадры) : 0.120 Размер потока : 1,13 Гбайт (59%) Заголовок : Nacija.mechtatelej.2010.x264.BDRip.AVC.MediaClub Библиотека кодирования : x264 core 142 r2409+42 04be48a tMod [8-bit@4:2:0 X86] Настройки программы : cabac=1 / ref=9 / deblock=1:-2:-2 / analyse=0x3:0x133 / me=umh / subme=11 / psy=1 / fade_compensate=0.00 / psy_rd=1.00:0.15 / mixed_ref=1 / me_range=32 / chroma_me=1 / trellis=2 / 8x8dct=1 / cqm=0 / deadzone=21,11 / fast_pskip=0 / chroma_qp_offset=-3 / threads=3 / lookahead_threads=1 / sliced_threads=0 / nr=0 / decimate=0 / interlaced=0 / bluray_compat=0 / constrained_intra=0 / fgo=0 / bframes=8 / b_pyramid=2 / b_adapt=2 / b_bias=0 / direct=3 / weightb=1 / open_gop=0 / weightp=2 / keyint=240 / keyint_min=23 / scenecut=40 / intra_refresh=0 / rc=2pass / mbtree=0 / bitrate=1700 / ratetol=1.0 / qcomp=0.60 / qpmin=0:0:0 / qpmax=69:69:69 / qpstep=4 / cplxblur=20.0 / qblur=0.5 / ip_ratio=1.40 / pb_ratio=1.30 / aq=1:1.00 / aq-sensitivity=10.00 / aq-factor=1.00:1.00:1.00 / aq2=0 / aq3=0 Язык : English Default : Да Forced : Нет

    Аудио #1: Идентификатор : 2 Формат : AC-3 Формат/Информация : Audio Coding 3 Расширение режима : CM (complete main) Параметр Endianness формата : Big Идентификатор кодека : A_AC3 Продолжительность : 1 ч. 38 м. Вид битрейта : Постоянный Битрейт : 192 Кбит/сек Каналы : 2 канала Расположение каналов : Front: L R Частота : 48,0 КГц Битовая глубина : 16 бит Метод сжатия : С потерями Размер потока : 135 Мбайт (7%) Заголовок : TRACK_01_DVO_RUS_НТВ+ Язык : Russian Default : Да Forced : Да

    Аудио #2: Идентификатор : 3 Формат : AC-3 Формат/Информация : Audio Coding 3 Расширение режима : CM (complete main) Параметр Endianness формата : Big Идентификатор кодека : A_AC3 Продолжительность : 1 ч. 38 м. Вид битрейта : Постоянный Битрейт : 448 Кбит/сек Каналы : 6 каналов Расположение каналов : Front: L C R, Side: L R, LFE Частота : 48,0 КГц Битовая глубина : 16 бит Метод сжатия : С потерями Размер потока : 315 Мбайт (16%) Заголовок : TRACK_02_VO_RUS_zamez Язык : Russian Default : Нет Forced : Нет

    Аудио #3: Идентификатор : 4 Формат : AC-3 Формат/Информация : Audio Coding 3 Расширение режима : CM (complete main) Параметр Endianness формата : Big Идентификатор кодека : A_AC3 Продолжительность : 1 ч. 38 м. Вид битрейта : Постоянный Битрейт : 448 Кбит/сек Каналы : 6 каналов Расположение каналов : Front: L C R, Side: L R, LFE Частота : 48,0 КГц Битовая глубина : 16 бит Метод сжатия : С потерями Размер потока : 315 Мбайт (16%) Заголовок : TRACK_03_ORIGINAL_ENG Язык : English Default : Нет Forced : Нет

    Скачать Нация мечтателей через торрент в хорошем качестве скачать фильм Нация мечтателей 2010 торрент

    Нация мечтателей через торрент

    Скачать торрент нация мечтателейСкачать торрент нация мечтателей

    Описание фильма Нация мечтателей Нация мечтателей трейлер Скачать Нация мечтателей через торрент в хорошем качестве

    Аудио: AC3, 192 kb/s (2 ch)

    Скачать торрент нация мечтателей Скачать торрент нация мечтателей

    Аудио: 48 kHz, AC3, 6 channels (Front: L C R, Side: L R, LFE), 448.00 kbps [zamez]

    Скачать торрент нация мечтателей Скачать торрент нация мечтателей

    Аудио: Аудио #1: Русский (AC3, 2 ch, 192 Кбит/с) / Профессиональный двухголосый (НТВ+)

    Аудио #2: Русский (AC3, 6 ch, 448 Кбит/с) / Любительский одноголосый (zamez)

    Аудио #3: Английский (AC3, 6 ch, 448 Кбит/с)

    Доп. информация: Субтитры: Русские (alex-kam), английские (SDH)

    Скачать торрент нация мечтателей Скачать торрент нация мечтателей

    1862 kbps avg, 0.27 bit/pixel

    Аудио: Audio #1: 48 kHz, AC3 Dolby Digital, 2/0 (L,R) ch,

    192 kbps - Профессиональный (двухголосый закадровый) НТВ+Audio #2: 48 kHz, AC3 Dolby Digital, 3/2 (L,C,R,l,r) + LFE ch,

    448 kbps - Любительский (одноголосый закадровый) zamezAudio #3: 48 kHz, AC

    Нация мечтателей (2010) смотреть онлайн или скачать фильм через торрент

    Нация мечтателей (2010)

    Дата выхода в России (или в Мире): 10.09.2010

    Дата выхода на DVD: 15.05.2014

    Городская девушка приезжает в маленький городок и впутывается в опасный любовный треугольник, разрываясь между своим школьным учителем и симпатичным одноклассником.

    Название фильма Название антологии

    Скачать торрент нация мечтателей

    14 Янв. 2013 21:07

    25 Май 2012 11:04

    Для просмотра скриншотов нажмите на описание торрента!

    Скачать торрент нация мечтателей Скачать торрент нация мечтателей Скачать торрент нация мечтателей

    Фильмы похожие на Нация мечтателей

    Видео кодек: MPEG-4

    Аудио кодек: AC3

    Видео: MPEG-4 AVC, 9878 Кбит/с, 1920х1080, 23.976 кадр/с

    Аудио: Аудио #1: Русский (AC3, 2 ch, 192 Кбит/с) Профессиональный двухголосый («HTB+»)

    Аудио #2: Русский (AC3, 6 ch, 448 Кбит/с) Любительский одноголосый (Вячеслав zamez)

    Аудио #3: Английский (AC3, 6 ch, 448 Кбит/с) Оригинал

    Перевод: Профессиональный двухголосый, любительский одноголосый

    Субтитры: Русские, английские

    Видео кодек: H.26x

    Аудио кодек: AC3

    Видео: 1700 Кбит/с, 1024x576, 23.976 кадр/с

    Аудио: Аудио #1: Русский (AC3, 2 ch, 192 Кбит/с) / Профессиональный двухголосый (НТВ+)

    Аудио #2: Русский (AC3, 6 ch, 448 Кбит/с) / Любительский одноголосый (zamez)

    Аудио #3: Английский (AC3, 6 ch, 448 Кбит/с)

    Субтитры: Русские (alex-kam), английские (SDH)

    Видео кодек: H.26x

    Аудио кодек: AC3

    Видео: MPEG-4 AVC / 23686 kbps / 1920x1080 / 24 fps / 16:9 / High Profile 4.1

    Аудио: Аудио 1: AC3 / 2.0 / 48 kHz / 192 kbps / 16 bits - Профессиональный (двухголосый закадровый) НТВ+

    Аудио 2: AC3 / 5.1 / 48 kHz / 448 kbps / 16 bits - Любительский (одноголосый закадровый) zamez

    Аудио 3: DTS-HD Master Audio / 5.1 / 48 kHz / 3463 kbps / 24 bits (DTS Core: 5.1 / 48 kHz / 1510 kbps / 24 bits) - Оригинал (Английский)

    Перевод: Профессиональный (двухголосый закадровый) НТВ+ + Любительский (одноголосый закадровый) zamez

    Субтитры: Русские, Английские

    Видео кодек: XviD

    Аудио кодек: AC3

    Видео: 720x400, 23.976 fps, XviD MPEG-4

    1862 kbps avg, 0.27 bit/pixel

    Аудио: Audio #1: 48 kHz, AC3 Dolby Digital, 2/0 (L,R) ch,

    192 kbps - Профессиональный (двухголосый закадровый) НТВ+

    Audio #2: 48 kHz, AC3 Dolby Digital, 3/2 (L,C,R,l,r) + LFE ch,

    448 kbps - Любительский (одноголосый закадровый) zamez

    Audio #3: 48 kHz, AC3 Dolby Digital, 3/2 (L,C,R,l,r) + LFE ch,

    448 kbps - Оригинал (Английский)

    Профессиональный (двухголосый закадровый) НТВ+ + Любительский (одноголосый закадровый) zamez + Оригинал (Английский)