Софт-Архив

2008 Особо Опасен Скачать Торрент

Рейтинг: 4.9/5.0 (69 проголосовавших)

Категория: Торрент-файлы

Описание

Скачать торрент Особо опасен

Особо опасен

Название: Особо опасен

Оригинальное название: Wanted

Год выхода: 2008

Жанр: Боевик, Триллер, Драма

Режиссер: Тимур Бекмамбетов

В ролях: Джеймс МакЭвой, Морган Фриман, Анджелина Джоли, Теренс Стэмп, Томас Кречманн, Common, Кристен Хагер, Марк Уоррен, Дэвид О`Хара, Константин Хабенский, Дато Бахтадзе, Крис Прэтт, Лорна Скотт, София Хак, Брэд Калькатерра, Брайан Каспе, Марк О`Нил, Бриджет МакМанус, Скарлетт Спердуто, Боб Эри, Дэниэл Боутон

Уэсли Гибсон — неудачник по жизни, зануда, постоянно торчащий в офисе. Босс постоянно издевается над ним, а подружка изменяет. Жизнь, казалось бы, катится в никуда! Узнав, что отец, который бросил семью еще в раннем детстве, был жестоко убит, парень оказался втянутым в тайное общество безжалостных убийц, называющих себя «Братство». Опытная наставница по имени Фокс берется за обучение героя. И этот офисный планктон Уэсли смог под её началом развить молниеносную реакцию и невероятную скорость. Но уже на своем первом задании герой понимает, что в жизни есть вещи посложнее, чем вершить судьбы других.

Качество: BDRip 720p

Видео: 1280x544, 23.976 fps, 3500 kbps

2008 особо опасен скачать торрент:

  • скачать
  • скачать
  • Другие статьи

    Особо опасен скачать торрент в хорошем качестве бесплатно

    2008 особо опасен скачать торрент

    2008 особо опасен скачать торрент

    Оригинальное название: Wanted

    Дата выхода на DVD: 2 сентября 2009, «Юниверсал Пикчерс Рус»

    Этот американский боевик был снят знаменитым казахским режиссером Тимуром Бекмамбетовым. Сюжет его разворачивается вокруг 25-тилетнего Уэсли Гибсона, неудачника, недовольного своей жизнью. Начальник его постоянно ругает и унижает, любимая девушка не обращает на него никакого внимания и, более того, изменяет с его единственным другом. В общем, вся жизнь его день за днем становилась «растительной».

    Никто не сомневался в том, что этот неудачник совершенно ничего не сможет добиться. Его ждала только одна участь: прожить свою жалкую жизнь до конца и умереть в положенный срок в одиночестве. Именно так все бы и было, если бы не знакомство с Фокс, обворожительной и сексуальной женщиной.

    После очередной беды (убили его отца) Фокс предлагает Уэсли вступить в тайное общество, так называемое «Братство». Там обещали ему научить, как отомстить за гибель отца, используя скрытые в нем запасы энергии и силы: феноменальную ловкость и молниеносные рефлексы. Но Уэсли еще обнаруживает, что тайное общество соблюдает и нерушимый древний кодекс: убить одного ради спасения тысяч.

    Уэсли, под руководством блестящих наставников, овладевает навыками, о которых ему раньше не доводилось и мечтать. Однако, все оказывается не таким простым, как кажется сразу. Он, разрываясь между героизмом и жаждой отомстить за отца, понимает одну истину: только тебе одному под силу контролировать свою судьбу.

    Фильм Особо опасен (2008) скачать торрент в хорошем качестве HD 1080 бесплатно

    Скачать фильм "Особо опасен" через торрент в хорошем качестве бесплатно

    2008 особо опасен скачать торрент

    Оригинальное название: Wanted

    Слоган: «Выбери свою судьбу»

    Премьера в мире: 12 июня 2008

    Премьера в России: 26 июня 2008

    Продолжительность: 110 мин. / 01:50

    Описание: Уэсли Гибсон - обычный молодой человек, жизнь которого не отличается чем-то особенным. Работает клерком в посредственной конторе, выслушивая издевательства от начальницы, живет с девушкой, которая спит с его лучшим другом. Бесцельное существование, которое ведет в никуда. Но в его жизни появляется девушка по имени Фокс. Она рассказывает ему правду о его отце. Оказывается, что тот был профессиональным убийцей. И умер не много лет назад, как считал Уэсли, а вчера ночью. Теперь кто-то должен занять его место в организации по подготовке киллеров. Этим кем-то является его единственный наследник, то есть Уэсли. Фокс начинает его обучение основам этого нелегкого ремесла. Из ничтожества Уэсли постепенно превращается в мужчину. Но самым сложным испытанием становиться принятие ответственности за все, что происходит в собственной жизни.

    Особо опасен (2008) скачать торрент бесплатно

    Особо опасен (2008)

    2008 особо опасен скачать торрент

    Главный герой фильма обычный парень, жизнь которого не очень удачна. Он беден, его девушка ему изменяет, на работе полный завал, а живет он в ужасном месте. В общем, он неудачник. Но однажды на него покушаются, а в это же время к нему на защиту приходит одна девушка. Теперь на его счете сотни тысяч долларов, а он стал в центре событий одной секретной группировки. Этой группировкой управляет нить судьбы, которая восстанавливает и удерживает баланс в мире. Она показывает, кого нужно убить, чтобы они не натворили того, что должны натворить.

    Главный герой вступает в их группировку, потому-что его отца убил один профессиональный киллер, остановить которого сможет только он. Потому-что его погибший отец обладал невероятным мастерством, таким же, который скрыт в нем. Его задача стать профессионалом и убить убийцу своего отца…

    Также рекомендуем вам скачать фильм Законопослушный гражданин, чтобы посмотреть его после просмотра данного фильма.

    Скачать фильм Особо опасен

    Скачать фильм Особо опасен / Wanted (Тимур Бекмамбетов) [2008, боевик, триллер, криминал, HDRip-AVC] DUB - торрент

    Скачать через торрент фильм вы можете, нажав на синюю кнопку. Фильм доступен на нашем торрент-трекере бесплатно, без регистрации и смс.

    2008 особо опасен скачать торрент

    Перевод: Профессиональный (полное дублирование), cубтитры: отсутствуют

    Формат: HDRip-AVC, MKV, H.264, AC3

    Страна: США, Германия

    Режиссер: Тимур Бекмамбетов

    2008 особо опасен скачать торрент 2008 особо опасен скачать торрент

    2727 Kbps, 0.163 bit/pixel

    Аудио #1: Русский 48 kHz, AC3 Dolby Digital, 3/2 (L,C,R,l,r) + LFE ch,

    448 kbps avg [Профессиональный (полное дублирование)]

    Аудио #2: Английский 48 kHz, AC3 Dolby Digital, 3/2 (L,C,R,l,r) + LFE ch,

    448 kbps avg [Оригинал]

    Unique ID : 214702840090854015402126793813324614113 (0xA186434C99FB5F5C99BA8690B75649E1)

    Complete name : F:\Osobo.Opasen.2008.HDRip-AVC.H.264..2,78 Gb.RG.Films.mkv

    Format version : Version 2

    File size : 2.78 GiB

    Duration : 1h 50mn

    Overall bit rate : 3 609 Kbps

    Encoded date : UTC 2013-08-23 16:36:30

    Writing application : mkvmerge v5.8.0 ('No Sleep / Pillow') built on Sep 2 2012 15:37:04

    Writing library : libebml v1.2.3 + libmatroska v1.3.0

    Format/Info : Advanced Video Codec

    Format profile : High@L4.1

    Format settings, CABAC : Yes

    Format settings, ReFrames : 8 frames

    Muxing mode : Header stripping

    Codec ID : V_MPEG4/ISO/AVC

    Duration : 1h 50mn

    Bit rate : 2 727 Kbps

    Width : 1 280 pixels

    Height : 544 pixels

    Display aspect ratio : 2.35:1

    Frame rate mode : Constant

    Frame rate : 23.976 fps

    Color space : YUV

    Chroma subsampling : 4:2:0

    Bit depth : 8 bits

    Scan type : Progressive

    Stream size : 2.04 GiB (73%)

    Writing library : x264 core 125 r2208 d9d2288

    Encoding settings : cabac=1 / ref=8 / deblock=1:-1:-1 / analyse=0x3:0x133 / me=umh / subme=10 / psy=1 / psy_rd=1.00:0.10 / mixed_ref=1 / me_range=24 / chroma_me=1 / trellis=2 / 8x8dct=1 / cqm=0 / deadzone=21,11 / fast_pskip=0 / chroma_qp_offset=-3 / threads=12 / lookahead_threads=2 / sliced_threads=0 / nr=0 / decimate=1 / interlaced=0 / bluray_compat=0 / constrained_intra=0 / bframes=3 / b_pyramid=2 / b_adapt=2 / b_bias=0 / direct=3 / weightb=1 / open_gop=0 / weightp=2 / keyint=250 / keyint_min=23 / scenecut=40 / intra_refresh=0 / rc_lookahead=50 / rc=2pass / mbtree=1 / bitrate=2727 / ratetol=1.0 / qcomp=0.60 / qpmin=0 / qpmax=69 / qpstep=4 / cplxblur=20.0 / qblur=0.5 / ip_ratio=1.40 / aq=1:1.00

    Format/Info : Audio Coding 3

    Mode extension : CM (complete main)

    Format settings, Endianness : Big

    Muxing mode : Header stripping

    Codec ID : A_AC3

    Duration : 1h 50mn

    Bit rate mode : Constant

    Bit rate : 448 Kbps

    Channel(s) : 6 channels

    Channel positions : Front: L C R, Side: L R, LFE

    Sampling rate : 48.0 KHz

    Bit depth : 16 bits

    Compression mode : Lossy

    Stream size : 354 MiB (12%)

    Format/Info : Audio Coding 3

    Mode extension : CM (complete main)

    Format settings, Endianness : Big

    Muxing mode : Header stripping

    Codec ID : A_AC3

    Duration : 1h 50mn

    Bit rate mode : Constant

    Bit rate : 448 Kbps

    Channel(s) : 6 channels

    Channel positions : Front: L C R, Side: L R, LFE

    Sampling rate : 48.0 KHz

    Bit depth : 16 bits

    Compression mode : Lossy

    Stream size : 354 MiB (12%)

    2008 особо опасен скачать торрент

    2008 особо опасен скачать торрент

    2008 особо опасен скачать торрент

    2008 особо опасен скачать торрент

    2008 особо опасен скачать торрент

    2008 особо опасен скачать торрент

    2008 особо опасен скачать торрент

    2008 особо опасен скачать торрент

    2008 особо опасен скачать торрент

    2008 особо опасен скачать торрент

    2008 особо опасен скачать торрент

    2008 особо опасен скачать торрент

    2008 особо опасен скачать торрент

    2008 особо опасен скачать торрент

    2008 особо опасен скачать торрент

    Информация о торренте:

    Скачан: 5959 раз

    Статус: Проверен Зарегистрирован на трекере: 2013-08-24 11:56