Софт-Архив

Скачать Фильм Через Торрент Шулер

Рейтинг: 4.8/5.0 (112 проголосовавших)

Категория: Торрент-файлы

Описание

Скачать торрент Шулер 01-10 из 10 (2013

Шулер [01-10 из 10]

Оригинальное название: Шулер (Одесса-мама)

Год выпуска: 2013

Жанр: Криминал, драма

Режиссер: Эдуард Парри

В ролях: Антон Феоктистов, Ольга Лерман, Сергей Сосновский, Алексей Ведерников (II), Алексей Горбунов, Сергей Алимпиев, Кирилл Козаков, Екатерина Волкова, Юлия Галкина, Владимир Карпов (III), Александр Робак, Павел Трубинер, Александр Савенков, Алексей Смолка, Вадим Цаллати

Дело происходит в Одессе в 1980 год. У Костика Волошина большие планы, он хочет удрать за кордон. У него двойная жизнь – должность научного сотрудника НИИ лишь прикрытие для шулерской деятельности, в которой Костик абсолютный профи. Спасаясь от карточника Гоги, которому он задолжал большую сумму денег, Костик едет в Одессу, откуда сам родом. Ему нужно заработать денег чтобы уехать из страны. Все аферы наш герой проворачивает под прикрытием Балабана, который крышует всю Одессу. Однако лучший друг и покровитель Балабан становится врагом номер один, когда Костик узнает, что именно он причастен к гибели его отца. А теперь Балабан еще и намерен выжить Костика из города, ведь у них на пути встала одна девушка по имени Майя. Костик решает заставить Балабана заплатить за смерть своего отца.

Продолжительность: 10 х

Перевод: Не требуется

Качество: DVDRip-AVC / 2 x DVD9 R5 - лицензионные диски от компании "Мистерия звука"

Видео: 720x576x1024x576 (16:9), 25.000 fps, MPEG-4 AVC

1800 kbps avg, 0.174 bit/pixel

Аудио: 48 kHz, Dolby AC3, 2 ch, 192 kbps, русский

скачать фильм через торрент шулер:

  • скачать
  • скачать
  • Другие статьи

    Скачать сериал Шулер

    Скачать сериал Шулер / Одесса-мама (1-10 серии из 10) (Эдуард Парри) [2013, криминал, драма, WEB-DL 720p] - торрент

    Скачать через торрент сериал вы можете, нажав на синюю кнопку. Сериал доступен на нашем торрент-трекере бесплатно, без регистрации и смс.

    Скачать фильм через торрент шулерПеревод: Не требуется, cубтитры: отсутствуют

    Формат: WEB-DL 720p, MKV, H.264, AC3

    Страна: Россия, Украина

    Режиссер: Эдуард Парри

    Продолжительность: 10 х

    Скачать фильм через торрент шулер

    1800 kbps avg, 0.078 bit/pixel

    Аудио: 48 kHz, AC3 Dolby Digital, 2/0 (L,R) ch,

    Complete name : Shuler.2013.WEB-DL.720p\Shuler.2013.WEB-DL.720p_08.seriya.mkv

    Format version : Version 2

    File size : 716 MiB

    Duration : 50mn 22s

    Overall bit rate : 1 986 Kbps

    Encoded date : UTC 2013-09-26 17:30:36

    Format/Info : Advanced Video Codec

    Format profile : High@L3.1

    Format settings, CABAC : Yes

    Format settings, ReFrames : 3 frames

    Codec ID : V_MPEG4/ISO/AVC

    Duration : 50mn 22s

    Bit rate : 1 800 Kbps

    Width : 1 280 pixels

    Height : 720 pixels

    Display aspect ratio : 16:9

    Frame rate mode : Constant

    Frame rate : 25.000 fps

    Color space : YUV

    Chroma subsampling : 4:2:0

    Bit depth : 8 bits

    Scan type : Progressive

    Stream size : 632 MiB (88%)

    Writing library : x264 core 120

    Format/Info : Audio Coding 3

    Mode extension : CM (complete main)

    Format settings, Endianness : Big

    Codec ID : A_AC3

    Duration : 50mn 22s

    Bit rate mode : Constant

    Bit rate : 192 Kbps

    Channel(s) : 2 channels

    Channel positions : Front: L R

    Sampling rate : 48.0 KHz

    Bit depth : 16 bits

    Compression mode : Lossy

    Stream size : 69.2 MiB (10%)

    Скачать фильм через торрент шулер

    Скачать фильм через торрент шулер

    Скачать фильм через торрент шулер

    Скачать фильм через торрент шулер

    Информация о торренте:

    Скачан: 13575 раз

    Статус: Проверен Зарегистрирован на трекере: 2014-10-26 11:45

    Как качать с торрента?

    Скачать фильм через торрент шулер

    Королева бандитов (2 сезон: 1-16 серии из 16) (Дмитрий Кузьмин) [2014, криминал, мелодрама, HDTVRip]

    http://my-tfile.org/forum/viewtopic.php?t=682422

    Королева бандитов (2 сезон: 1-16 серии из 16) (Дмитрий Кузьмин) [2014, криминал, мелодрама, HDTVRip 720p]

    Скачать фильм через торрент шулер

    Шулер / Одесса-мама (2013) скачать торрент

    Скачать фильм через торрент шулер

    Год выхода: 2013

    Жанр: криминал, драма

    Режиссер: Эдуард Парри

    В ролях: Антон Феоктистов, Ольга Лерман, Сергей Сосновский, Алексей Ведерников, Алексей Горбунов, Сергей Алимпиев, Кирилл Козаков, Екатерина Волкова, Юлия Галкина, Владимир Карпов, Александр Робак, Павел Трубинер, Александр Савенков, Алексей Смолка, Вадим Цаллати

    Озвучивание: Оригинал (русский)

    Скачать фильм через торрент шулер

    Скачать фильм через торрент шулер

    Скачать фильм через торрент шулер

    Скачать фильм через торрент шулер

    Скачать фильм через торрент шулер

    Скачать фильм через торрент шулер

    Скачать торрент фильм Шулер / Одесса-мама (2013) бесплатно без регистрации и без рейтинга

    Скачать фильм через торрент шулер

    скачать фильм через торрент шулер

    Скачать фильм через торрент шулер

    Оригинальное название: Шулер / Одесса-мама

    Год выхода: 2013

    Жанр: Криминал, драма

    Режиссер: Эдуард Парри

    В ролях: Антон Феоктистов, Ольга Лерман, Сергей Сосновский, Алексей Ведерников (II), Алексей Горбунов, Сергей Алимпиев, Кирилл Козаков, Екатерина Волкова, Юлия Галкина, Владимир Карпов (III), Александр Робак, Павел Трубинер, Александр Савенков, Алексей Смолка, Вадим Цаллати.

    Дело происходит в Одессе в 1980 год. У Костика Волошина большие планы, он хочет удрать за кордон. У него двойная жизнь – должность научного сотрудника НИИ лишь прикрытие для шулерской деятельности, в которой Костик абсолютный профи. Спасаясь от карточника Гоги, которому он задолжал большую сумму денег, Костик едет в Одессу, откуда сам родом. Ему нужно заработать денег чтобы уехать из страны. Все аферы наш герой проворачивает под прикрытием Балабана, который крышует всю Одессу. Однако лучший друг и покровитель Балабан становится врагом номер один, когда Костик узнает, что именно он причастен к гибели его отца. А теперь Балабан еще и намерен выжить Костика из города, ведь у них на пути вставала одна девушка по имени Майя. Костик решает заставить Балабана заплатить за смерть своего отца.

    Шулер скачать торрент

    Шулер скачать торрент

    Для перехода к полной версии сайта нажмите сюда

    Скачать фильм через торрент шулер

    Сюжет фильма Шулер: Одесса, 1980 год. У Костика Волошина есть давняя мечта – удрать за кордон – социализм он строить не намерен. Костик ведет двойную жизнь – должность научного сотрудника НИИ - лишь прикрытие для шулерской деятельности, в которой Костик абсолютный профи. Спасаясь от расправы крутого карточника Гоги, у которого он вырвал из под носа большой куш, Костя едет в Одессу, откуда сам родом. Его цель – как можно быстрее «заработать» приличную сумму, достаточную для отъезда из страны.

    Оригинальное название: Шулер (Shuler)

    Год выхода в прокат: 2013

    Жанр: драма, криминал

    Режиссёр фильма: Эдуард Парри

    Актёры: Антон Феоктистов, Ольга Лерман, Сергей Сосновский, Алексей Горбунов, Кирилл Козаков, Юлия Галкина, Александр Робак, Павел Трубинер, Наталья Ковалева, Автандил Бежиашвили