Софт-Архив

скачать торрент щорс 1939

Рейтинг: 4.4/5.0 (399 проголосовавших)

Категория: Торрент-файлы

Описание

Скачать фильм Щорс (1939) DVDRip через торрент

Скачать фильм Щорс (Александр Довженко) / [1939, драма, DVDRip] - торрент

Нажмите на синюю кнопку, чтобы скачать фильм через торрент бесплатно. Фильм доступен на нашем торрент-трекере бесплатно, без регистрации и смс.

Скачать торрент щорс 1939Формат: DVDRip, AVI, XviD, AC3

Режиссер: Александр Довженко

Действие происходит на Украине в 1919 году, когда войска красных шли к Киеву. Предстояли бои с войсками Петлюры и Драгомирова…

1999 kbps avg, 0.22 bit/pixel

Аудио: 48 kHz, AC3 Dolby Digital, 2/0 (L,R) ch,

Скачать торрент щорс 1939

Скачать торрент щорс 1939

Скачать торрент щорс 1939

Скачать торрент щорс 1939

Скачать торрент щорс 1939

Скачать торрент щорс 1939

Скачать торрент щорс 1939

Скачать торрент щорс 1939

Информация о торренте:

Скачан: 1661 раз

Статус: Проверен Зарегистрирован на трекере: 2012-11-07 16:32

скачать торрент щорс 1939:

  • скачать
  • скачать
  • Другие статьи

    Скачать торрент щорс 1939

    Щорс (1939) DVDRip-AVC от ExKinoRay

    Скачать торрент щорс 1939

    Год выхода: 1939

    Режиссер: Александр Довженко, Юлия Солнцева

    В ролях: Евгений Самойлов, Иван Скуратов, Лука Ляшенко, Юрий Титов, Александр Гречаный, Николай Макаренко, Пётр Масоха, Валентин Дуклер, Фёдор Ищенко, Нина Никитина, Дмитрий Милютенко, Анна Борисоглебская, Александр Хвыля, Давид Кадников, Сергей Комаров (I), Георгий Полежаев, Юлий Бантыш, Дмитрий Барвинский, Юрий Лавров, Николай Комиссаров, Александр Сегал, Амвросий Бучма, Лаврентий Масоха, Степан Шкурат, Николай Крючков, Борис Андреев, Эмилия Мильтон, Николай Яковченко

    Историко-революционная лента с обилием великолепно поставленных батальных сцен рассказывает о полководце Николае Щорсе, легендарном герое гражданской войны. Действие происходит на Украине в 1919 году, когда войска красных шли к Киеву. Предстояли бои с войсками Петлюры и Драгомирова…

    Перевод: не требуется

    Видео: MPEG-4 AVC, 2200 Кбит/с, 710x566@757x566

    Щорс (полная версия) (1939) DVDRip

    Щорс (полная версия) (1939) [H.264] DVDRip

    Скачать торрент щорс 1939

    Поблагодарил(а): 8493 раз(а)"> 100%

    Производство: Киевская киностудия

    Год выпуска: 1939

    Жанр: Военный, исторический, биографический

    Личность Щорса Николая Александровича очень неоднозначна в истории страны.

    Лента с обилием великолепно поставленных батальных сцен рассказывает о полководце Николае Щорсе (1895-1919), легендарном герое гражданской войны. Действие происходит на Украине в 1919 году, когда войска красных шли к Киеву. Предстояли бои с войсками Петлюры и Драгомирова.

    Актеры: Александр Хвыля, Дмитрий Милютенко,Евгений Самойлов, Иван Скуратов, Лука Ляшенко, Нина Никитина, Федор Ищенко, Ганна Борисоглебская,Сергей Комаров, Александр Гречаный, Николай Макаренко, Георгий Полежаев, Петр Масоха, Габриэль Нелидов

    Размер кадра: 768x576

    Качество видео: DVDRip

    Аудиокодек: AC3 2.0

    Битрейт аудио: 224 Кбит/сек

    Уникальный идентификатор : 168348648403719580577546155723716462494 (0x7EA6C532C2870C1E037BA147C20E879E)

    Полное имя : G:\!V\2013\Щорс\Щорс (1939) DVDRip\Щорс (1939) [H.264] DVDRip .mkv

    Щорс, DVDRip-AVC Фильмы 1939 скачать торрентом

    скачать торрент щорс 1939

    Год выхода: 1939

    Жанр: Военный, биографический

    Режиссер: Александр Довженко, Юлия Солнцева

    В ролях: Евгений Самойлов, Иван Скуратов, Лука Ляшенко, Юрий Титов, Александр Гречаный, Николай Макаренко, Пётр Масоха, Валентин Дуклер, Фёдор Ищенко, Нина Никитина, Дмитрий Милютенко, Анна Борисоглебская, Александр Хвыля, Давид Кадников, Сергей Комаров (I), Георгий Полежаев, Юлий Бантыш, Дмитрий Барвинский, Юрий Лавров, Николай Комиссаров, Александр Сегал, Амвросий Бучма, Лаврентий Масоха, Степан Шкурат, Николай Крючков, Борис Андреев, Эмилия Мильтон, Николай Яковченко

    Историко-революционная лента с обилием великолепно поставленных батальных сцен рассказывает о полководце Николае Щорсе, легендарном герое гражданской войны. Действие происходит на Украине в 1919 году, когда войска красных шли к Киеву. Предстояли бои с войсками Петлюры и Драгомирова…

    Перевод: не требуется

    Видео: MPEG-4 AVC, 2200 Кбит/с, 710x566@757x566

    Звук: AC3, 2 ch, 224 Кбит/с

    x264 [info]: using SAR=16/15

    x264 [info]: using cpu capabilities: MMX2 SSE2Fast SSSE3 SSE4.2 AVX

    x264 [info]: profile High, level 4.1

    x264 [info]: frame I:39 Avg QP:13.88 size: 65510

    x264 [info]: frame P:752 Avg QP:18.04 size: 22138

    x264 [info]: frame B:1753 Avg QP:20.07 size: 5008

    Уникальный идентификатор : 181829793651004603007496470747593797808 (0x88CB24F9D9D49C24BF56B06B6A4F70B0)

    Полное имя : D:Щорс_1939-DVDRip-AVC.mkv

    Версия формата : Version 2

    Размер файла : 2,28 Гбайт

    Продолжительность : 2 ч. 14 м.

    Общий поток : 2426 Кбит/сек

    Дата кодирования : UTC 2016-01-29 06:01:23

    Программа кодирования : mkvmerge v5.8.0 ('No Sleep / Pillow&#039:wink: built on Sep 2 2012 15:37:04

    Библиотека кодирования : libebml v1.2.3 + libmatroska v1.3.0

    Формат/Информация : Advanced Video Codec

    Профиль формата : High@L4.1

    Параметр CABAC формата : Да

    Параметр ReFrames формата : 15 кадров

    Идентификатор кодека : V_MPEG4/ISO/AVC

    Продолжительность : 2 ч. 14 м.

    Битрейт : 2200 Кбит/сек

    Ширина : 710 пикселей

    Высота : 566 пикселей

    Соотношение сторон : 4:3

    Соотношение сторон в оригинале : 4:3

    Режим частоты кадров : Постоянный

    Частота кадров : 25,000 кадров/сек

    Цветовое пространство : YUV

    Субдискретизация насыщенности : 4:2:0

    Битовая глубина : 8 бит

    Тип развёртки : Прогрессивная

    Размер потока : 2,02 Гбайт (89%)

    Библиотека кодирования : x264 core 148 r2638 7599210

    Настройки программы : cabac=1 / ref=15 / deblock=1:-2:-2 / analyse=0x3:0x133 / me=umh / subme=10 / psy=1 / psy_rd=0.95:0.10 / mixed_ref=1 / me_range=32 / chroma_me=1 / trellis=2 / 8x8dct=1 / cqm=0 / deadzone=21,11 / fast_pskip=0 / chroma_qp_offset=-3 / threads=12 / lookahead_threads=2 / sliced_threads=0 / nr=0 / decimate=0 / interlaced=0 / bluray_compat=0 / constrained_intra=0 / bframes=8 / b_pyramid=2 / b_adapt=2 / b_bias=0 / direct=3 / weightb=1 / open_gop=0 / weightp=2 / keyint=250 / keyint_min=25 / scenecut=40 / intra_refresh=0 / rc=2pass / mbtree=0 / bitrate=2200 / ratetol=1.0 / qcomp=0.63 / qpmin=0 / qpmax=39 / qpstep=4 / cplxblur=20.0 / qblur=0.5 / ip_ratio=1.40 / pb_ratio=1.30 / aq=1:1.00

    Цветовой диапазон : Limited

    Основные цвета : BT.601 PAL

    Характеристики трансфера : BT.470 System B, BT.470 System G

    Скачать Щорс (полная версия) (1939) DVD9 торрент на

    Щорс (полная версия) (1939) DVD9

    Стаж: 3 года 11 месяцев

    Скачать торрент щорс 1939

    17-Май-2014 16:16

    Скачать торрент щорс 1939

    Год выпуска: 1939

    Жанр: Военный, драма, биографический

    Личность Щорса Николая Александровича очень неоднозначна в истории страны.

    Лента с обилием великолепно поставленных батальных сцен рассказывает о полководце Николае Щорсе (1895-1919), легендарном герое гражданской войны. Действие происходит на Украине в 1919 году, когда войска красных шли к Киеву. Предстояли бои с войсками Петлюры и Драгомирова.

    Режиссер: Александр Довженко

    Актеры: Александр Хвыля, Дмитрий Милютенко,Евгений Самойлов, Иван Скуратов, Лука Ляшенко, Нина Никитина, Федор Ищенко, Ганна Борисоглебская,Сергей Комаров, Александр Гречаный, Николай Макаренко, Георгий Полежаев, Петр Масоха, Габриэль Нелидов

    Размер кадра: 720x576

    Качество видео: DVD9

    Аудиокодек: AC3 2.0

    Битрейт аудио: 224 Кбит/сек

    Знаете ли вы, что:

    Size: 7.50 Gb ( 7 861 066,00 KBytes ) - DVD-9

    Enabled regions: 1, 2, 3, 4, 5, 6, 7, 8

    Play Length: 00:00:25

    Video: PAL 4:3 (720x576) VBR

    Not specified (Dolby AC3, 2 ch)

    Play Length: 02:14:32

    Video: PAL 4:3 (720x576) VBR

    Russian (Dolby AC3, 2 ch)

    Play Length: 00:00:22

    Video: PAL 4:3 (720x576) VBR

    Not specified (Dolby AC3, 2 ch)

    PAL 4:3 (720x576) VBR

    Not specified (LinearPCM, 2 ch)

    English Language Unit :

    PAL 4:3 (720x576) VBR

    Not specified (Dolby AC3, 2 ch)

    English Language Unit :

    Chapter (PTT) Menu

    NTSC 4:3 (720x480) VBR

    Auto Pan&Scan, Auto Letterboxed

    English Language Unit :

    Chapter (PTT) Menu

    NTSC 4:3 (720x480) VBR

    Auto Pan&Scan, Auto Letterboxed

    English Language Unit :

    Chapter (PTT) Menu

    MediaInfo:

    Полное имя : G:\!V\2013\Щорс\Щорс (1939)\Shchors (1939) DVD9\VIDEO_TS\VTS_02_1.VOB

    Размер файла : 1000 Мбайт

    Продолжительность : 17 м.

    Режим общего битрейта : Переменный

    Общий поток : 7801 Кбит/сек

    Идентификатор : 224 (0xE0)

    Формат : MPEG Video

    Версия формата : Version 2

    Параметр BVOP формата : Да

    Параметр матрицы формата : По умолчанию

    Параметр GOP формата : M=3, N=12

    Продолжительность : 17 м.

    Вид битрейта : Переменный

    Битрейт : 7422 Кбит/сек

    Максимальный битрейт : 8500 Кбит/сек

    Ширина : 720 пикселей

    Высота : 576 пикселей

    Соотношение сторон : 4:3

    Частота кадров : 25,000 кадров/сек

    Стандарт вещания : PAL

    Цветовое пространство : YUV

    Субдискретизация насыщенности : 4:2:0

    Битовая глубина : 8 бит

    Тип развёртки : Прогрессивная

    Метод сжатия : С потерями

    Размер потока : 951 Мбайт (95%)

    Идентификатор : 189 (0xBD)-128 (0x80)

    Формат/Информация : Audio Coding 3

    Расширение режима : CM (complete main)

    Параметр Endianness формата : Big

    Режим смешивания : DVD-Video

    Продолжительность : 17 м.

    Вид битрейта : Постоянный

    Битрейт : 224 Кбит/сек

    Каналы : 2 канала

    Расположение каналов : Front: L R

    Частота : 48,0 КГц

    Битовая глубина : 16 бит

    Метод сжатия : С потерями

    Размер потока : 28,7 Мбайт (3%)

    Идентификатор : 189 (0xBD)-32 (0x20)

    Формат/Информация : Run-length encoding

    Режим смешивания : DVD-Video

    Продолжительность : 17 м.

    Задержка видео : 680 мс.

    Идентификатор : 189 (0xBD)-33 (0x21)

    Формат/Информация : Run-length encoding

    Режим смешивания : DVD-Video

    Продолжительность : 17 м.

    Задержка видео : 680 мс.

    Идентификатор : 189 (0xBD)-34 (0x22)

    Формат/Информация : Run-length encoding

    Режим смешивания : DVD-Video

    Продолжительность : 17 м.

    Задержка видео : 680 мс.

    Идентификатор : 189 (0xBD)-35 (0x23)

    Формат/Информация : Run-length encoding

    Режим смешивания : DVD-Video

    Продолжительность : 17 м.

    Задержка видео : 680 мс.

    Скачать торрент щорс 1939 Скачать торрент щорс 1939 Скачать торрент щорс 1939 Скачать торрент щорс 1939

    Скачать торрент щорс 1939 Скачать торрент щорс 1939 Скачать торрент щорс 1939

    Скачать торрент щорс 1939 Скачать торрент щорс 1939 Скачать торрент щорс 1939 Скачать торрент щорс 1939 Скачать торрент щорс 1939

    Скачать торрент щорс 1939 Скачать торрент щорс 1939 Скачать торрент щорс 1939 Скачать торрент щорс 1939 Скачать торрент щорс 1939

    Время раздачи: C 10:00 до 23:00

    Текущее время: Сегодня 21:20

    Часовой пояс: GMT + 4

    Вы не можете отвечать на сообщения

    Вы не можете редактировать свои сообщения

    Вы не можете удалять свои сообщения

    Вы не можете голосовать в опросах

    Вы не можете прикреплять файлы к сообщениям

    Вы можете скачивать файлы

    Search Powered by Sphinx

    Powered by TorrentPier II © Meithar, TorrentPier II Team