Софт-Архив

Nino Portelli скачать торрент

Рейтинг: 4.3/5.0 (17 проголосовавших)

Категория: Торрент-файлы

Описание

Nino Portelli - The Sound Of Nino Portelli (1992) - Качественная lossless музыка - Flac, Ape, Wavpack, WMA Lossless

Nino Portelli - The Sound Of Nino Portelli (1992) скачать в формате flac

Аудио кодек: FLAC, APE
Битрейт аудио: lossless

01 - Schwarze Augen 3:03
(Trad. arr. H.Annala) Bluebird Music
02 - Rosen Bluh'n Wieder Schon 2:10
(V.Samuli) Bluebird Music
03 - Seemann, Deine Heimat ist Das Meer 3:40
(W.Scharfenberger)
04 - Quizas, Quizas, Quizas 2:47
(O.Farres) Peer Music
05 - Besame Mucho 3:35
(C.Velasquez) Peer Music
06 - Jalousie 3:03
(J.Gade) Ch. Brull
07 - Unter Den Brucken Von Paris 2:40
Sous les Ponts de Paris -(V.Scorto) Ed. Meridian
08 - Quando, Quando, Quando 2:48
(T.Renis) Intersong
09 - La Mer 3:17
(Ch.Trenet)
10 - Gipsy Love 2:45
(C.Kaparov - K.Manilov) LeBaron Musik
11 - Schwarz Ist Die Nacht 3:14
(Bogoslovski, arr. T.Karki - O.Antero) LeBaron Musik
12 - El Solitaro 3:35
(J.Kluger - D.Vangarde) LeBaron Musik
13 - Tintarella Di Luna 2:35
(Migliacci - de Filippi)
14 - Jambalaya 3.05
(H.Williams) Chappeli
15 - Torna A Sorriento 3:20
(E. di Capua, arr. N.Pollari) Bluebird Music
16 - Tres Palabras 2:58
(O.fanes) Peer Music


Исполнитель. Nino Portelli
Название диска. The sounds of Nino Portelli
Год выпуска. 1992
Жанр. Instrumental (accordion)
Формат. FLAC (track)
Качество. Lossless
Продолжительность. 00:55:29
Лейбл. Bluebird Music Oy
Размер. 318,63 Mb

Nino Portelli - The Sound Of Nino Portelli (1992)

Пароль на все архивы: 1234567


Вы можете воспользоваться поиском торрент файлов, что бы скачать музыку Nino Portelli - The Sound Of Nino Portelli (1992) в формате Flac, Ape, Wavpack, WMA Lossless.

Если поиск не удался, то попробуйте изменить или сократить запрос.

Nino portelli скачать торрент:

  • скачать
  • скачать
  • Другие статьи

    Nino Portelli - The Sound Of

    Раздача является мультитрекерной — учтите, количество раздающих не будет совпадать с количеством участников на сайте (скачивание на клиентской стороне зависит от настроек uTorrent клиент программы, настройки -> Включить DHT, Обмен пирами и Поиск лок-х пиров).
    Если висит надпись, пиры по нулям - не бойтесь, возможность скачать повторно раздачу - есть. Попробуйте, в случае отказа - прокоментируйте или нажмите на "Позвать скачавших".

    О музыке: Инструментальная музыка — музыка, исполняемая на инструментах, без участия человеческого голоса. Различают сольную, ансамблевую и оркестровую инструментальную музыку. Широко распространена в классической музыке, джазе, электронной музыке, нью-эйдже, пост-роке и т. д. Музыкальные альбомы разных исполнителей нередко содержат инструментальные композиции (например, Mind Of Karma «Yellow Submarine» Beatles, или «Autobahn» Kraftwerk).


    01. Schwarze Augen
    02. Rosen Bluh'n Wieder Schon
    03. Seemann, Deine Heimat Ist Das Meer
    04. Quizas, Quizas, Quizas
    05. Besame Mucho
    06. Jalousie
    07. Unter Den Brucken Von Paris
    08. Quando, Quando, Quando
    09. La Mer
    10. Gipsy Love
    11. Schwarz Ist Die Nacht
    12. El Solitaro
    13. Tintarella Di Luna
    14. Jambalaya
    15. Torna A Sorriento
    16. Tres Palabras

    Нажмите чтобы закрыть спойлер: Список песен

    Nino Portelli - The sounds of Nino Portelli

    Nino Portelli - The sounds of Nino Portelli / 1992

    Треклист:
    01. Schwarze Augen
    02. Rosen Bluh'n Wieder Schon
    03. Seemann, Deine Heimat Ist Das Meer
    04. Quizas, Quizas, Quizas
    05. Besame Mucho
    06. Jalousie
    07. Unter Den Brucken Von Paris
    08. Quando, Quando, Quando
    09. La Mer
    10. Gipsy Love
    11. Schwarz Ist Die Nacht
    12. El Solitaro
    13. Tintarella Di Luna
    14. Jambalaya
    15. Torna A Sorriento
    16. Tres Palabras

    Аудио: MP3, 320kbps
    Продолжительность: 00:48:37

    Что-бы бесплатно и без регистрации скачать Nino Portelli - The sounds of Nino Portelli / 1992 через торрент - воспользутейсь данной инструкцией .

    Не забываем говорить "Спасибо" - кнопка возле торрента, а так же делить ссылкой на Nino Portelli - The sounds of Nino Portelli / 1992 с друзьями:

    Nino portelli скачать торрент

    V.A. - Golden Accordion (2000) Лейбл: Halahup Records
    Каталог: HAL965
    Год: 2000
    Жанр: Instrumental
    Продолжительность: 01:19:08

    Кодек: FLAC
    Битрейт: Lossless

    Трек лист:
    01. Milan Koren - Czardas (Monti)
    02. Nino Portelli - Fur Elisie
    03. Milan Koren - Weite See
    04. Jan Holland - De Vogeltjesdans
    05. Nino Portelli - Surrender
    06. Milan Koren - Petite Heur
    07. Jan Holland - Black Eyes (Trad.)
    08. Milan Koren - Anette
    09. Nino Portelli - Bessame Mucho
    10. Nino Portelli - Champagne Splesh
    11. Nino Portelli - Habanera
    12. Nino Portelli - Flowers In The Sky
    13. Milan Koren - Zwei Verlieble in Paris
    14. Milan Koren - Berlin-Dixie
    15. Milan Koren - Comeng Back To Kerry


    Exact Audio Copy V0.99 prebeta 5 from 4. May 2009

    Отчёт EAC об извлечении, выполненном 24. июля 2009, 15:29

    Various / Golden Accordion

    Дисковод: HL-DT-STDVDRAM GSA-H42N Adapter: 0 ID: 0

    Режим чтения : Достоверность
    Использование точного потока : Да
    Отключение кэша аудио : Да
    Использование указателей C2 : Нет

    Коррекция смещения при чтении : 667
    Способность читать области Lead-in и Lead-out : Нет
    Заполнение пропущенных сэмплов тишиной : Да
    Удаление блоков с тишиной в начале и конце : Нет
    При вычислениях CRC использовались нулевые сэмплы : Да
    Интерфейс : Встроенный Win32-интерфейс для Win NT/2000

    Выходной формат : Внутренние WAV-операции
    Формат сэмплов : 44.100 Гц; 16 бит; стерео

    TOC извлечённого CD

    Трек | Старт | Длительность | Начальный сектор | Конечный сектор
    ---------------------------------------------------------------------
    1 | 0:00.00 | 3:27.22 | 0 | 15546
    2 | 3:27.22 | 2:12.28 | 15547 | 25474
    3 | 5:39.50 | 4:08.07 | 25475 | 44081
    4 | 9:47.57 | 2:12.15 | 44082 | 53996
    5 | 11:59.72 | 3:17.53 | 53997 | 68824
    6 | 15:17.50 | 3:16.63 | 68825 | 83587
    7 | 18:34.38 | 2:00.70 | 83588 | 92657
    8 | 20:35.33 | 2:56.53 | 92658 | 105910
    9 | 23:32.11 | 3:32.24 | 105911 | 121834
    10 | 27:04.35 | 3:40.13 | 121835 | 138347
    11 | 30:44.48 | 2:26.42 | 138348 | 149339
    12 | 33:11.15 | 3:00.40 | 149340 | 162879
    13 | 36:11.55 | 2:27.16 | 162880 | 173920
    14 | 38:38.71 | 3:43.68 | 173921 | 190713
    15 | 42:22.64 | 3:03.54 | 190714 | 204492
    16 | 45:26.43 | 1:54.74 | 204493 | 213116
    17 | 47:21.42 | 2:58.16 | 213117 | 226482
    18 | 50:19.58 | 2:19.02 | 226483 | 236909
    19 | 52:38.60 | 3:22.36 | 236910 | 252095
    20 | 56:01.21 | 3:43.42 | 252096 | 268862
    21 | 59:44.63 | 2:27.37 | 268863 | 279924
    22 | 62:12.25 | 2:25.60 | 279925 | 290859
    23 | 64:38.10 | 3:28.53 | 290860 | 306512
    24 | 68:06.63 | 2:05.67 | 306513 | 315954
    25 | 70:12.55 | 3:53.20 | 315955 | 333449
    26 | 74:06.00 | 2:42.53 | 333450 | 345652
    27 | 76:48.53 | 2:19.45 | 345653 | 356122

    Характеристики диапазона извлечения и сообщения об ошибках

    Имя файла D:\Раздача torents\Golden Accordion\Various - Golden Accordion.wav

    Пиковый уровень 100.0 %
    Качество диапазона 99.9 %
    CRC копии B662A77B
    Копирование. OK

    Ошибок не произошло

    Трек 1 нет в базе данных
    Трек 2 нет в базе данных
    Трек 3 нет в базе данных
    Трек 4 нет в базе данных
    Трек 5 нет в базе данных
    Трек 6 нет в базе данных
    Трек 7 нет в базе данных
    Трек 8 нет в базе данных
    Трек 9 нет в базе данных
    Трек 10 нет в базе данных
    Трек 11 нет в базе данных
    Трек 12 нет в базе данных
    Трек 13 нет в базе данных
    Трек 14 нет в базе данных
    Трек 15 нет в базе данных
    Трек 16 нет в базе данных
    Трек 17 нет в базе данных
    Трек 18 нет в базе данных
    Трек 19 нет в базе данных
    Трек 20 нет в базе данных
    Трек 21 нет в базе данных
    Трек 22 нет в базе данных
    Трек 23 нет в базе данных
    Трек 24 нет в базе данных
    Трек 25 нет в базе данных
    Трек 26 нет в базе данных
    Трек 27 нет в базе данных

    Ни одного трека нет в базе AccurateRip

    DON'T MODIFY THIS FILE

    PERFORMER: auCDtect Task Manager, ver. 1.5.1RC4 build 1.5.1.5
    Copyright (c) 2008-2010 y-soft. All rights reserved
    http://y-soft.org

    ANALYZER: auCDtect: CD records authenticity detector, version 0.8.2
    Copyright (c) 2004 Oleg Berngardt. All rights reserved.
    Copyright (c) 2004 Alexander Djourik. All rights reserved.

    FILE: Various - Golden Accordion.flac
    Size: 586161817 Hash: 19B3CB0A3B17D6C51D5E10AA2C728751 Accuracy: -m0
    Conclusion: CDDA 100%
    Signature: 1DB2E566B43598E77767F0D8AAAF5FEC613EB4B6

    REM GENRE Instrumental
    REM DATE 2000
    REM DISCID 7F128C1B
    REM COMMENT "ExactAudioCopy v0.99pb5"
    PERFORMER "Various"
    TITLE "Golden Accordion"
    FILE "Various - Golden Accordion.flac" WAVE
    TRACK 01 AUDIO
    TITLE "Czardas (Monti)"
    PERFORMER "Milan Koren"
    FLAGS DCP
    INDEX 01 00:00:00
    TRACK 02 AUDIO
    TITLE "Fur Elisie"
    PERFORMER "Nino Portelli"
    FLAGS DCP
    INDEX 00 03:27:21
    INDEX 01 03:27:22
    TRACK 03 AUDIO
    TITLE "Weite See"
    PERFORMER "Milan Koren"
    FLAGS DCP
    INDEX 00 05:39:49
    INDEX 01 05:39:50
    TRACK 04 AUDIO
    TITLE "De Vogeltjesdans"
    PERFORMER "Jan Holland"
    FLAGS DCP
    INDEX 00 09:47:56
    INDEX 01 09:47:57
    TRACK 05 AUDIO
    TITLE "Surrender"
    PERFORMER "Nino Portelli"
    FLAGS DCP
    INDEX 00 11:59:71
    INDEX 01 11:59:72
    TRACK 06 AUDIO
    TITLE "Petite Heur"
    PERFORMER "Milan Koren"
    FLAGS DCP
    INDEX 00 15:17:49
    INDEX 01 15:17:50
    TRACK 07 AUDIO
    TITLE "Black Eyes (Trad.)"
    PERFORMER "Jan Holland"
    FLAGS DCP
    INDEX 00 18:34:37
    INDEX 01 18:34:38
    TRACK 08 AUDIO
    TITLE "Anette"
    PERFORMER "Milan Koren"
    FLAGS DCP
    INDEX 00 20:35:32
    INDEX 01 20:35:33
    TRACK 09 AUDIO
    TITLE "Bessame Mucho"
    PERFORMER "Nino Portelli"
    FLAGS DCP
    INDEX 00 23:32:10
    INDEX 01 23:32:11
    TRACK 10 AUDIO
    TITLE "Champagne Splesh"
    PERFORMER "Nino Portelli"
    FLAGS DCP
    INDEX 00 27:04:34
    INDEX 01 27:04:35
    TRACK 11 AUDIO
    TITLE "Habanera"
    PERFORMER "Nino Portelli"
    FLAGS DCP
    INDEX 00 30:44:47
    INDEX 01 30:44:48
    TRACK 12 AUDIO
    TITLE "Flowers In The Sky"
    PERFORMER "Nino Portelli"
    FLAGS DCP
    INDEX 00 33:11:14
    INDEX 01 33:11:15
    TRACK 13 AUDIO
    TITLE "Zwei Verlieble in Paris"
    PERFORMER "Milan Koren"
    FLAGS DCP
    INDEX 00 36:11:54
    INDEX 01 36:11:55
    TRACK 14 AUDIO
    TITLE "Berlin-Dixie"
    PERFORMER "Milan Koren"
    FLAGS DCP
    INDEX 00 38:38:70
    INDEX 01 38:38:71
    TRACK 15 AUDIO
    TITLE "Comeng Back To Kerry"
    PERFORMER "Milan Koren"
    FLAGS DCP
    INDEX 00 42:22:63
    INDEX 01 42:22:64
    TRACK 16 AUDIO
    TITLE "Barcarole"
    PERFORMER "Milan Koren"
    FLAGS DCP
    INDEX 00 45:26:42
    INDEX 01 45:26:43
    TRACK 17 AUDIO
    TITLE "Guapil"
    PERFORMER "Nino Portelli"
    FLAGS DCP
    INDEX 00 47:21:41
    INDEX 01 47:21:42
    TRACK 18 AUDIO
    TITLE "Zirkus Renz"
    PERFORMER "Milan Koren"
    FLAGS DCP
    INDEX 00 50:19:57
    INDEX 01 50:19:58
    TRACK 19 AUDIO
    TITLE "A Media Luz"
    PERFORMER "Nino Portelli"
    FLAGS DCP
    INDEX 00 52:38:59
    INDEX 01 52:38:60
    TRACK 20 AUDIO
    TITLE "My Poor Soul (Trad.)"
    PERFORMER "Jan Holland"
    FLAGS DCP
    INDEX 00 56:01:20
    INDEX 01 56:01:21
    TRACK 21 AUDIO
    TITLE "Carnival Of Venice"
    PERFORMER "Jan Holland"
    FLAGS DCP
    INDEX 00 59:44:62
    INDEX 01 59:44:63
    TRACK 22 AUDIO
    TITLE "American Patrol"
    PERFORMER "Jan Holland"
    FLAGS DCP
    INDEX 00 62:12:24
    INDEX 01 62:12:25
    TRACK 23 AUDIO
    TITLE "Silver Threads Among The Gold"
    PERFORMER "Jan Holland"
    FLAGS DCP
    INDEX 00 64:38:09
    INDEX 01 64:38:10
    TRACK 24 AUDIO
    TITLE "Der Reigen"
    PERFORMER "Milan Koren"
    FLAGS DCP
    INDEX 00 68:06:62
    INDEX 01 68:06:63
    TRACK 25 AUDIO
    TITLE "Alpen-Dixie"
    PERFORMER "Milan Koren"
    FLAGS DCP
    INDEX 00 70:12:54
    INDEX 01 70:12:55
    TRACK 26 AUDIO
    TITLE "Lucille"
    PERFORMER "Jan Holland"
    FLAGS DCP
    INDEX 01 74:06:00
    TRACK 27 AUDIO
    TITLE "Karambletta"
    PERFORMER "Nino Portelli"
    FLAGS DCP
    INDEX 00 76:48:52
    INDEX 01 76:48:53

    Время раздачи: С 13:00 до 18:00 и с 20:00 до 08:00 Мск. до 5-ти скачавших

    Nino Portelli - The Sound Of

    Раздача является мультитрекерной — учтите, количество раздающих не будет совпадать с количеством участников на сайте (скачивание на клиентской стороне зависит от настроек µTorrent клиент программы, настройки -> Включить DHT, Обмен пирами и Поиск лок-х пиров).
    Если висит надпись, пиры по нулям - не бойтесь, возможность скачать повторно раздачу - есть. Попробуйте, в случае отказа - прокоментируйте или нажмите на "Позвать скачавших".

    Magnet-ссылка (альтернативная ссылка для скачивания файла)

    О музыке: Инструментальная музыка — музыка, исполняемая на инструментах, без участия человеческого голоса. Различают сольную, ансамблевую и оркестровую инструментальную музыку. Широко распространена в классической музыке, джазе, электронной музыке, нью-эйдже, пост-роке и т. д. Музыкальные альбомы разных исполнителей нередко содержат инструментальные композиции (например, Mind Of Karma «Yellow Submarine» Beatles, или «Autobahn» Kraftwerk).


    01. Schwarze Augen
    02. Rosen Bluh'n Wieder Schon
    03. Seemann, Deine Heimat Ist Das Meer
    04. Quizas, Quizas, Quizas
    05. Besame Mucho
    06. Jalousie
    07. Unter Den Brucken Von Paris
    08. Quando, Quando, Quando
    09. La Mer
    10. Gipsy Love
    11. Schwarz Ist Die Nacht
    12. El Solitaro
    13. Tintarella Di Luna
    14. Jambalaya
    15. Torna A Sorriento
    16. Tres Palabras

    Нажмите чтобы закрыть спойлер: Список песен

    Оповестить о раздаче

    Включить оповещение на почту ( о новом торрент-файле ), когда появится раздача с похожим названием: Nino Portelli - The Sound Of, Instrumental

    Внимание. Если вы не авторизованы, то для вас будет создана временная учетная запись (доступ к аккаунту будет прикреплен в письме).