Софт-Архив

Скачать Земля Исчезнувших Торрент

Рейтинг: 4.4/5.0 (123 проголосовавших)

Категория: Торрент-файлы

Описание

Моя земля скачать торрент в хорошем качестве бесплатно

скачать земля исчезнувших торрент

Скачать земля исчезнувших торрент

Название: Моя земля

Оригинальное название: Under sandet

Слоган: «They survived World War II. Now they have to survive the clearing»

Премьера в мире: 10 сентября 2015

Дата выхода в России: 25 апреля 2016

Продолжительность: 100 мин. / 01:40

Вторая мировая война только что завершилась победой советских войск. Как и многие другие европейские страны, Дания восстанавливается после оккупации фашистами, но все западное побережье страны по-прежнему остается заминированным. Для ликвидации мин Британия передает датским вооруженным силам несколько сотен военнопленных из Германии, большинство из которых еще мальчишки, даже не участвовавшие в настоящих боях.Одно из подразделений пленников попадает под управление сержанта Карла Расмуcсена, обещающего подросткам возвращение домой только после того, как они очистят доверенный им участок. Расмуссен обучает вчерашних школьников обезвреживанию мин, а затем ежедневно отправляет их на опасные операции, вернуться с которых суждено далеко не всем. Постепенно сержант начинает относиться к пленникам с пониманием, что очень не нравится его руководству. Мужчине делают выговор, и теперь ему предстоит решить, что же для него важнее — человечность или подчинение приказам.

скачать земля исчезнувших торрент:

  • скачать
  • скачать
  • Другие статьи

    Скачать фильм Искатели

    Скачать фильм Искатели. Загадка исчезнувшей земли (Олег Бараев) / [2017, документальный, история, расследование, приключения, IPTVRip] - торрент

    Скачать фильм бесплатно через торрент. Фильм доступен на нашем торрент-трекере бесплатно, без регистрации и смс.

    Скачать земля исчезнувших торрент

    Перевод: Не требуется, cубтитры : отсутствуют

    Формат: IPTVRip , AVI, XviD, AC3

    Режиссер: Олег Бараев

    1650 kbps avg, 0.21 bit/pixel

    Аудио: 48 kHz, AC3 Dolby Digital, 2/0 (L,R) ch,

    Скачать земля исчезнувших торрентСкачать земля исчезнувших торрент

    Скачать земля исчезнувших торрентСкачать земля исчезнувших торрент

    Информация о торренте:

    Статус: Проверен Зарегистрирован на трекере: 2017-05-27 14:28

    Скачать Земля

    Земля. Территория загадок. Тайна исчезнувшей цивилизации (2016) SATRip

    Пиры будут получены при скачивании

    Стаж: 3 года 11 месяцев

    Скачать земля исчезнувших торрент

    02-Июн-2016 23:43

    Скачать земля исчезнувших торрент

    Режиссер: Алексей Артемьев

    Описание: Где зародилась цивилизация? В древности люди писали про некий континент, располагавшийся между Гавайями и островом Пасхи. Согласно легенде, от большого куска суши остались лишь мелкие острова, а выжившие от катастроф люди расселились по миру. Действительно ли от них произошли все народы? Продолжительность: 00:23:59

    Качество видео: SATRip

    Видео: Xvid, 720x400,

    Аудио: AC3, 2 ch, 192 Кбит/сек, CBR

    Mediainfo:

    Полное имя : F:\видео\фильмы\Земля. Территория загадок\Тайна исчезнувшей цивилизации.avi

    Формат/Информация : Audio Video Interleave

    Размер файла : 285 Мбайт

    Продолжительность : 23 м.

    Общий поток : 1663 Кбит/сек

    Программа кодирования : VirtualDubMod 1.5.10.3 | [url=http://www.virtualdub-fr.org]www.virtualdub-fr.org[/url] || (build 2550/release)

    Библиотека кодирования : VirtualDubMod build 2550/release

    Формат : MPEG-4 Visual

    Параметр BVOP формата : 1

    Параметр QPel формата : Нет

    Параметр GMC формата : Без точки перехода

    Параметр матрицы формата : Default (H.263)

    Идентификатор кодека : XVID

    Идентификатор кодека/Подсказка : XviD

    Продолжительность : 23 м.

    Битрейт : 1462 Кбит/сек

    Ширина : 720 пикселей

    Высота : 400 пикселей

    Соотношение сторон : 16:9

    Частота кадров : 25,000 кадров/сек

    Цветовое пространство : YUV

    Субдискретизация насыщенности : 4:2:0

    Битовая глубина : 8 бит

    Тип развёртки : Прогрессивная

    Метод сжатия : С потерями

    Размер потока : 250 Мбайт (88%)

    Библиотека кодирования : XviD 1.2.1 (UTC 2008-12-04)

    Формат/Информация : Audio Coding 3

    Расширение режима : CM (complete main)

    Параметр Endianness формата : Big

    Идентификатор кодека : 2000

    Продолжительность : 23 м.

    Вид битрейта : Постоянный

    Битрейт : 192 Кбит/сек

    Каналы : 2 канала

    Расположение каналов : Front: L R

    Частота : 48,0 КГц

    Частота кадров : 31,250 кадров/сек (1536 spf)

    Метод сжатия : С потерями

    Размер потока : 32,9 Мбайт (12%)

    Выравнивание : Разделение по промежуткам

    Продолжительность промежутка : 40 мс. (1,00 видеокадр)

    Время предзагрузки промежутка : 500 мс.

    Скачать земля исчезнувших торрент Скачать земля исчезнувших торрент Скачать земля исчезнувших торрент Скачать земля исчезнувших торрент Время раздачи: 24/7. До первых 5 скачавших Земля. Территория загадок на Torbina.com club

    Текущее время: Сегодня 06:24

    Часовой пояс: GMT + 4

    Вы не можете отвечать на сообщения

    Вы не можете редактировать свои сообщения

    Вы не можете удалять свои сообщения

    Вы не можете голосовать в опросах

    Вы не можете прикреплять файлы к сообщениям

    Вы можете скачивать файлы

    Search Powered by Sphinx

    Powered by TorrentPier II © Meithar, TorrentPier II Team

    Скачать Земля: Жизнь без людей 2009 - ТОРРЕНТИНО - торрент трекер - бесплатно DVD

    Земля: Жизнь без людей / Aftermath: Population Zero (2008) DVDRip

    Информация о фильме

    Название: Земля: Жизнь без людей

    Оригинальное название: Aftermath: Population Zero

    Год выхода: 2008

    Жанр: Документальный, фантастика

    Режисcер: Кристофер Роули

    Что бы случилось, если бы каждый человек на Земле просто исчез? Ушел. Не умер, просто ушел. Это — поразительная история мира, который мы никогда не будем видеть. Мир без людей, где городские улицы все еще населяются автомобилями, но без водителей. Никто не починит мосты, не отремонтирует здания или поддержит электростанции. Будучи управляемым человечеством на протяжении тысячелетий, природа восстанавливает землю. Но как бы это помогло? Как долго небоскребы, атомные электростанции, и наши дома протянули без нас?

    Выпущено: США, Cream Productions

    Выход на DVD: 7 июля 2009, «MC Entertainment»

    Видео: AVI (XviD), 672x368 (1.83:1), 25 fps, XviD build 50

    1607 kbps avg, 0.26 bit/pixel

    Звук: Русский (Одноголосый), 48 kHz, AC3 Dolby Digital, 2/0 (L,R) ch,

    Скачать фильм Земля: Жизнь без людей (2008) через торрент

    Земля: Жизнь без людей

    Оригинальное название: Aftermath: Population Zero

    Возраст: для любой зрительской аудитории

    Скачать фильм «Земля: Жизнь без людей» через торрент бесплатно

    Перевод: Профессиональный (одноголосый)

    Качество: DVDRip (DVD5)

    Видео: XviD, 640x352, 25fps, 1066kbps

    Аудио: MPEG Layer 3, 2ch, 48000Hz, 128kbps

    Скачать земля исчезнувших торрент Скачать земля исчезнувших торрент

    Видео: AVI (XviD), 672x368 (1.83:1), 25 fps, XviD build 50

    1607 kbps avg, 0.26 bit/pixel

    Звук: Русский (Одноголосый), 48 kHz, AC3 Dolby Digital, 2/0 (L,R) ch,

    192.00 kbps avg|Лицензия|

    Скачать земля исчезнувших торрент Скачать земля исчезнувших торрент

    Перевод: Русский язык,Английский язык,Русские субтитры

    Видео: MPEG4 Video (H264) 1280x720 23.98fps [Video] (3511 Kbps)

    Аудио: English: 48 kHz, AC3 Dolby Digital, 3/2 (L,C,R,l,r) + LFE ch,

    384.00 kpbs avg Russian: Mp3 48 kHz, Stereo,320.00 kpbs VBR