Софт-Архив

Скачать Торрент Холодное Сердце Avi

Рейтинг: 4.2/5.0 (105 проголосовавших)

Категория: Торрент-файлы

Описание

Скачать торрент Холодное сердце

Скачать торрент Холодное сердце / Frozen (2013) BDRip от HELLYWOOD | Локализованная версия | Лицензия

Скачать торрент холодное сердце avi

Скачать торрент холодное сердце avi

Страна: США / Walt Disney Animation Studios, Walt Disney Pictures

Перевод: Профессиональный (дублированный)

+ Оригинальная звуковая дорожка

Cубтитры: русские (полные), аглийские (полные, полные sdh) отдельно

В ролях: Кристен Белл, Идина Мензел, Джонатан Грофф, Джош Гад, Сантино Фонтана, Алан Тьюдик, Киаран Хайндс, Крис Уильямс, Стивен Дж. Андерсон, Майа Уилсон.

Автор рипа: Seven

Видео: 720x320 (2.25:1), 23.976 fps, XviD build 73

2146 kbps avg, 0.39 bit/pixel

Аудио 1: 48 kHz, AC3 Dolby Digital, 3/2 (L,C,R,l,r) + LFE ch,

448.00 kbps avg | Rus BD CEE

Аудио 2: 48 kHz, AC3 Dolby Digital, 3/2 (L,C,R,l,r) + LFE ch,

скачать торрент холодное сердце avi:

  • скачать
  • скачать
  • Другие статьи

    Холодное сердце

    Холодное сердце / Frozen (2013) HDRip

    Скачать торрент холодное сердце avi

    Поблагодарил(а): 2790 раз(а)"> 100%

    Производство: США, Walt Disney Animation Studios, Walt Disney Pictures

    Жанр: Фэнтези, Комедия, Приключения

    Перевод: Дублированный [Лицензия CEE]

    Продюсер: Питер Дель Вечо, Джон Лассетер, Айми Скрибнер

    Актеры: Кристен Белл, Идина Мензел, Джонатан Грофф, Джош Гад, Сантино Фонтана, Алан Тьюдик, Киаран Хайндс, Крис Уильямс, Стивен Дж. Андерсон, Майа Уилсон

    Когда древнее предсказание сбывается и королевство погружается в объятия вечной зимы, трое бесстрашных героев — принцесса Анна, отважный Кристофф и его верный олень Свен — отправляются в горы, чтобы найти сестру Анны, Эльзу, которая может снять со страны леденящее заклятие. По пути их ждет множество увлекательных сюрпризов и захватывающих приключений: встреча с мистическими троллями, знакомство с очаровательным снеговиком по имени Олаф, горные вершины покруче Эвереста и магия в каждой снежинке. Анне и Кристоффу предстоит сплотиться и противостоять могучей стихии, чтобы спасти королевство и тех, кто им дорог…

    Дата российской премьеры: 12 декабря 2013, «WDSSPR» 3D

    Дата выхода DVD релиза: 29 апреля 2014, «Уолт Дисней Компани СНГ»

    Качество видео: HDRip

    Размер кадра: 720x320

    Аудиокодек: AC3 5.1

    Битрейт аудио: 448 Kbps

    Полное имя : E:\Фильмы\Holodnoe.serdce.2013.D.HDRip.1.46Gb.avi

    Формат/Информация : Audio Video Interleave

    Размер файла : 1,46 Гбайт

    Продолжительность : 1 ч. 42 м.

    Общий поток : 2048 Кбит/сек

    Название фильма : Frozen

    Программа кодирования : VirtualDubMod 1.5.10.2 (build 2540/release)

    Формат : MPEG-4 Visual

    Профиль формата : Advanced Simple@L5

    Параметр BVOP формата : 2

    Параметр QPel формата : Нет

    Параметр GMC формата : Без точки перехода

    Параметр матрицы формата : Выборочная

    Режим смешивания : Сжатый битовый поток

    Идентификатор кодека : XVID

    Идентификатор кодека/Подсказка : XviD

    Продолжительность : 1 ч. 42 м.

    Битрейт : 1591 Кбит/сек

    Ширина : 720 пикселей

    Высота : 320 пикселей

    Соотношение сторон : 2,25:1

    Частота кадров : 23,976 кадра/сек

    Цветовое пространство : YUV

    Субдискретизация насыщенности : 4:2:0

    Битовая глубина : 8 бит

    Тип развёртки : Прогрессивная

    Метод сжатия : С потерями

    Размер потока : 1,14 Гбайт (78%)

    Библиотека кодирования : XviD 65

    Формат/Информация : Audio Coding 3

    Расширение режима : CM (complete main)

    Параметр Endianness формата : Big

    Идентификатор кодека : 2000

    Продолжительность : 1 ч. 42 м.

    Вид битрейта : Постоянный

    Битрейт : 448 Кбит/сек

    Каналы : 6 каналов

    Расположение каналов : Front: L C R, Side: L R, LFE

    Частота : 48,0 КГц

    Битовая глубина : 16 бит

    Метод сжатия : С потерями

    Размер потока : 328 Мбайт (22%)

    Выравнивание : Разделение по промежуткам

    Продолжительность промежутка : 42 мс. (1,00 видеокадр)

    Холодное сердце (2013) HDRip - Торрент

    Скачать торрент холодное сердце avi

    Холодное сердце › Торрент Мультфильмы » Комедии, Фэнтези, HDRip и BDRip
    • ager
    • 30.04.2014 21:32:32
    • 3412

    Скачать торрент холодное сердце avi

    Оригинальное название: Frozen

    Год выпуска: 2013

    Жанр: Мультфильм, фэнтези, комедия, приключения, семейный, полнометражный

    Выпущено: США, Walt Disney Animation Studios, Walt Disney Pictures

    Режиссер: Крис Бак, Дженнифер Ли

    В ролях: Кристен Белл, Идина Мензел, Джонатан Грофф, Джош Гэд, Сантино Фонтана, Алан Тьюдик, Киаран Хайндс, Крис Уильямс, Стивен Дж. Андерсон, Майа Уилсон

    Видео: XviD, 1460 Кбит/с, 720x320

    Аудио: AC3, 6 ch, 448 Кбит/с

    Перевод: Дублированный [ЛИЦЕНЗИЯ Blu-Ray CEE]

    Холодное сердце

    скачать торрент холодное сердце avi

    Название: Холодное сердце

    Оригинальное название: Frozen

    Жанр: мультфильм, фэнтези, комедия, приключения, семейный

    Режиссер: Крис Бак, Дженнифер Ли

    Роли Озвучивали: Кристен Белл, Идина Мензел, Джонатан Грофф, Джош Гад, Сантино Фонтана, Алан Тьюдик, Киаран Хайндс, Крис Уильямс, Стивен Дж. Андерсон, Майа Уилсон

    Когда древнее предсказание сбывается и королевство погружается в объятия вечной зимы, трое бесстрашных героев — принцесса Анна, отважный Кристофф и его верный олень Свен — отправляются в горы, чтобы найти сестру Анны, Эльзу, которая может снять со страны леденящее заклятие. По пути их ждет множество увлекательных сюрпризов и захватывающих приключений: встреча с мистическими троллями, знакомство с очаровательным снеговиком по имени Олаф, горные вершины покруче Эвереста и магия в каждой снежинке. Анне и Кристоффу предстоит сплотиться и противостоять могучей стихии, чтобы спасти королевство и тех, кто им дорог…

    Скачать торрент холодное сердце avi

    Перевод: Дублированный[чистый звук]

    Видео: 720x320 (2.25:1), 29.970 fps, ATI YVU12 4:2:0 Planar

    1570 kbps avg, 0.23 bit/pi

    Звуковая Дорожка #1: 48 kHz, MPEG Layer 3, 2 ch,

    128.00 kbps avg Russian

    Звуковая Дорожка #2: 48 kHz, MPEG Layer 3, 2 ch,

    Скачать торрент Холодное сердце

    Скачать Холодное сердце / Frozen (2013) BDRip от HELLYWOOD | Локализованная версия | Лицензия торрент

    Скачать торрент холодное сердце avi

    Скачать торрент холодное сердце avi

    Страна: США / Walt Disney Animation Studios, Walt Disney Pictures

    Перевод: Профессиональный (дублированный)

    + Оригинальная звуковая дорожка

    Cубтитры: русские (полные), аглийские (полные, полные sdh) отдельно

    В ролях: Кристен Белл, Идина Мензел, Джонатан Грофф, Джош Гад, Сантино Фонтана, Алан Тьюдик, Киаран Хайндс, Крис Уильямс, Стивен Дж. Андерсон, Майа Уилсон.

    Автор рипа: Seven

    Видео: 720x320 (2.25:1), 23.976 fps, XviD build 73

    2146 kbps avg, 0.39 bit/pixel

    Аудио 1: 48 kHz, AC3 Dolby Digital, 3/2 (L,C,R,l,r) + LFE ch,

    448.00 kbps avg | Rus BD CEE

    Аудио 2: 48 kHz, AC3 Dolby Digital, 3/2 (L,C,R,l,r) + LFE ch,