Софт-Архив

Сериал Дуэлянт Скачать Торрент

Рейтинг: 5.0/5.0 (73 проголосовавших)

Категория: Торрент-файлы

Описание

Скачать торрент Дуэлянт (2016) BDRip-AVC от OlLanDGroup, Лицензия

Скачать Дуэлянт (2016) BDRip-AVC от OlLanDGroup | Лицензия торрент

Сериал дуэлянт скачать торрент

Сериал дуэлянт скачать торрент

Режиссер: Алексей Мизгирёв

В ролях: Пётр Фёдоров, Владимир Машков, Юлия Хлынина, Франциска Петри, Мартин Вуттке, Сергей Гармаш, Павел Табаков, Юрий Колокольников, Александр Яценко, Пьер Бурель

В центре сюжета профессиональный дуэлянт, который зарабатывает на жизнь, участвуя в поединках за других людей. Фильм завораживает игрой красок, тонов и оттенков, которые заставляют узнавать, сравнивать и воспринимать площади, улицы, дворы и подворотни знакомого с детства города как-то иначе, ибо действительно прекрасно передан дух того, теперь уже далёкого, 19 века. Сюжет фильма порывист и как бы составлен из разных мазков кистью художника, но, по мере просмотра, все эти впечатляющие то своей динамикой, то вялостью текущего действа лоскутки сливаются в красивый, не отпускающий тебя до самого конца узор повествования. Прекрасно костюмированная картина, подчеркнутая великолепно прочувствованной актёрами атмосферой того времени, передает реальное ощущение достоверности событий, в которые полностью погружаешься с первых же просмотренных кадров фильма.

Студия: Нон-стоп Продакшн

Перевод: Не требуется (русский) | BD RUS

Видео: MPEG-4 AVC,1466 Кбит/с, 720x306, 24 кадр/с

Аудио: 48 kHz, AC3 Dolby Digital, 3/2 (L,C,R,l,r) + LFE ch,

сериал дуэлянт скачать торрент:

  • скачать
  • скачать
  • Другие статьи

    Скачать фильм Дyэлянт (2016) BDRip через торрент

    Скачать фильм Дyэлянт (Алексей Мизгирёв) / [2016, драма, BDRip 1080p] - торрент

    Скачать через торрент фильм вы можете, нажав на синюю кнопку. Фильм доступен на нашем торрент-трекере бесплатно, без регистрации и смс.

    Сериал дуэлянт скачать торрентПеревод: Не требуется (лицензия)

    Формат: BDRip, MKV, H.264, AC3

    Режиссер: Алексей Мизгирёв

    9307 kbps, 0.248 bit/pixel

    Аудио: Русский: 48 kHz, AC3 Dolby Digital, 6 ch,

    Уникальный идентификатор : 232742495492219422422181736463778285498 (0xAF1892FAD696581DB5151A711BD587BA)

    Полное имя : D:\Duelyant.2016.BDRip.(1080p).OlLanDGroup.mkv

    Размер файла : 7,58 Гбайт

    Продолжительность : 1 ч. 49 м.

    Общий поток : 9945 Кбит/сек

    Название фильма : Дуэлянт.2016.Rip by: ollan

    Дата кодирования : UTC 2017-01-14 06:10:41

    Программа кодирования : mkvmerge v5.0.1 ('Es ist Sommer') built on Oct 9 2011 11:55:43

    Библиотека кодирования : libebml v1.2.2 + libmatroska v1.3.0

    Формат/Информация : Advanced Video Codec

    Профиль формата : High@L4.1

    Параметр CABAC формата : Да

    Параметр ReFrames формата : 5 кадров

    Идентификатор кодека : V_MPEG4/ISO/AVC

    Продолжительность : 1 ч. 49 м.

    Битрейт : 9307 Кбит/сек

    Ширина : 1920 пикс.

    Высота : 816 пикс.

    Соотношение сторон : 2,35:1

    Частота кадров : 24,000 кадр/сек

    Цветовое пространство : YUV

    Подвыборка цветности : 4:2:0

    Битовая глубина : 8 бит

    Тип развёртки : Прогрессивная

    Размер потока : 6,94 Гбайт (92%)

    Библиотека кодирования : x264 core 146 r2538 121396c

    Настройки программы : cabac=1 / ref=5 / deblock=1:-3:-3 / analyse=0x3:0x133 / me=umh / subme=11 / psy=1 / psy_rd=0.05:0.10 / mixed_ref=1 / me_range=48 / chroma_me=1 / trellis=2 / 8x8dct=1 / cqm=0 / deadzone=21,11 / fast_pskip=0 / chroma_qp_offset=-2 / threads=12 / lookahead_threads=3 / sliced_threads=0 / nr=0 / decimate=0 / interlaced=0 / bluray_compat=0 / constrained_intra=0 / bframes=10 / b_pyramid=2 / b_adapt=2 / b_bias=0 / direct=3 / weightb=1 / open_gop=0 / weightp=2 / keyint=240 / keyint_min=23 / scenecut=40 / intra_refresh=0 / rc_lookahead=40 / rc=2pass / mbtree=0 / bitrate=9307 / ratetol=1.0 / qcomp=0.60 / qpmin=0 / qpmax=69 / qpstep=4 / cplxblur=20.0 / qblur=0.5 / vbv_maxrate=50000 / vbv_bufsize=62500 / nal_hrd=none / filler=0 / ip_ratio=1.40 / pb_ratio=1.30 / aq=1:1.00

    Формат/Информация : Audio Coding 3

    Расширение режима : CM (complete main)

    Идентификатор кодека : A_AC3

    Продолжительность : 1 ч. 49 м.

    Вид битрейта : Постоянный

    Битрейт : 640 Кбит/сек

    Каналы : 6 каналов

    Расположение каналов : Front: L C R, Side: L R, LFE

    Частота : 48,0 КГц

    Битовая глубина : 16 бит

    Метод сжатия : С потерями

    Размер потока : 499 Мбайт (6%)

    00:00:00.000 : ru:Chapter 01

    00:09:44.291 : ru:Chapter 02

    00:16:05.083 : ru:Chapter 03

    00:23:55.666 : ru:Chapter 04

    00:37:25.083 : ru:Chapter 05

    00:48:23.541 : ru:Chapter 06

    00:58:41.166 : ru:Chapter 07

    01:07:47.041 : ru:Chapter 08

    01:16:38.166 : ru:Chapter 09

    01:23:24.625 : ru:Chapter 10

    01:30:59.708 : ru:Chapter 11

    01:37:55.041 : ru:Chapter 12

    01:49:03.291 : ru:Chapter 13

    Сериал дуэлянт скачать торрент

    Сериал дуэлянт скачать торрент

    Сериал дуэлянт скачать торрент

    Сериал дуэлянт скачать торрент

    Информация о торренте:

    Скачан: 2312 раз

    Статус: Проверен Зарегистрирован на трекере: 2017-01-23 11:32

    Дуэлянт (2016) фильм скачать через торрент в хорошем качестве hd бесплатно без регистрации

    Дуэлянт (2016) скачать торрент

    Сериал дуэлянт скачать торрент

    Сериал дуэлянт скачать торрент

    Режиссер: Алексей Мизгирёв

    В главных ролях: Пётр Фёдоров, Владимир Машков, Юлия Хлынина, Франциска Петри, Мартин Вуттке, Сергей Гармаш, Павел Табаков, Юрий Колокольников, Пьер Бурель Петр Чубко

    Таким образом, удалось облегчить жизнь элите, которая только так сейчас и выясняет свои отношения. Да и каждый хочет побыстрей перехватить парня, который сможет представлять на дуэлях чужие интересы. Вот только, почему-то в данном случае никто не задумывается о самом герое, который уже устал каждый раз рисковать собственной жизнью. Ему, может быть, и хочется просто жить и любить. Правда, не сможет он себе позволить такую небывалую роскошь. Да и с каждым днем становится все трудней и трудней, ведь собственные мысли поедают парня изнутри. Данный исторический фильм прекрасно передает атмосферу той эпохи. Получилось очень дорого и красиво.

    Сериал дуэлянт скачать торрент Сериал дуэлянт скачать торрент Сериал дуэлянт скачать торрент

    Видео кодек: XviD

    Аудио кодек: АС3

    Видео: 720x320 (2.25:1), 29.970 fps, XviD

    Аудио: 48.0 kHz, AC3 Dolby Digital, 2/0 (L,R) ch,

    Дуэлянт (2016) скачать торрент в хорошем HD качестве

    Дуэлянт (2016) скачать торрент

    Для перехода к полной версии сайта нажмите сюда

    Видео: MPEG-4 AVC, 22029 Кбит/с, 1920x1080

    Аудио: Русский (AC3, 6 ch, 640 Кбит/с), (DTS, 6 ch, 1509 Кбит/с)

    Размер файла: 20.21 GB

    Сериал дуэлянт скачать торрент

    Сюжет торрента Дуэлянт: У каждого человека есть свой род деятельности. Главный герой фильма занимается тем, что участвует в смертельных дуэлях по найму, вместо богатых людей, которые не хотят уронить свою честь, но и рисковать жизнью не хотят. Трудно поспорить, что такая профессия является невероятно опасной. Действие разворачивается на территории Санкт-Петербурга. Что может заставить человека отправиться навстречу, которая может закончиться для него смертью? В первую очередь, это солидные гонорары. Только по-настоящему состоятельные люди могут позволить себе услуги дуэлянтов. Особенности его работы таковы, что он может попросить практически любой гонорар. Богатые люди отличаются трусостью. Они могут с легкостью вызвать соперника на дуэль, чтобы заполучить благосклонность прекрасной дамы. Но далеко не каждый готов подставлять себя. Поэтому у главного героя нет отбоя от клиентов, но не многие знают, что за тайну хранит о себе сам дуэлянт.

    Режиссер: Алексей Мизгирёв

    Актёры: Пётр Фёдоров, Владимир Машков, Юлия Хлынина, Франциска Петри, Мартин Вуттке, Сергей Гармаш, Павел Табаков, Юрий Колокольников, Александр Яценко, Пьер Бурель

    Сериал дуэлянт скачать торрент

    IMDB рейтинг: 7.5/10 (26 голосов)

    Бюджет: 725 000 000 руб.

    Премьера (мир): 9 сентября 2016

    Премьера (РФ): 29 сентября 2016

    Продолжительность: 110 мин. / 01:50

    Дуэлянт (2016) Скачать торрент

    Дуэлянт (2016) Скачать торрент

    Режиссер: Алексей Мизгирёв

    В главных ролях: Пётр Фёдоров, Владимир Машков, Юлия Хлынина, Франциска Петри, Мартин Вуттке, Сергей Гармаш, Павел Табаков, Юрий Колокольников, Пьер Бурель, Петр Чубко

    Сценарий: Алексей Мизгирёв

    Продюсер: Александр Роднянский, Сергей Мелькумов

    Оператор: Максим Осадчий

    Бюджет: 725 000 000 руб.

    Действия данной картины происходят в Англии, во времена когда джентльмены были вынуждены вызывать на дуэль тех, кто оскорбил их честь или честь его женщины. Но пафосно кидать вызов и идти на такое мог не каждый, многие просто боялись. Герой нашего фильма решает зарабатывать на таких трусах. Он разработал целую методику побед на дуэлях. Основал мастерскую, в которой улучшал свои орудия, при помощи которых ему будет легче застрелить соперника с обычным пистолетом. Только вот если народ узнает о таких "умниках", которые только и умеют кидать вызов, будет им стыд и позор не только на себя, но и на весь род.