Софт-Архив

игра эндера скачать

Рейтинг: 4.4/5.0 (402 проголосовавших)

Категория: Игры

Описание

Игра Эндера - 2013 скачать торрент

Игра Эндера - 2013

Игра эндера скачать

Название: Игра Эндера

Оригинальное название: Ender's Game

Год выпуска: 2013

Жанр: Фантастика, боевик, приключения, экранизация

Выпущено: США, Chartoff Productions, Digital Domain Media Group, Kurtzman Orci Paper Products, Summit Entertainment

Режиссер: Гэвин Худ

В ролях: Харрисон Форд, Бен Кингсли, Эйса Баттерфилд, Эбигейл Бреслин, Хейли Стайнфелд, Виола Дэвис, Мойзес Ариас, Нонсо Анози, Арамис Найт, Брэндон Су Ху

Земля была дважды разорена инопланетной расой, которая решила уничтожить человечество. Семьдесят лет спустя люди Земли объединяются, чтобы не допустить их собственного истребления. Эндер Виггин — тихий, но невероятно способный мальчик, который может стать спасителем человеческой расы. Его отправляют в специальную школу, размещенную на орбите Земли, где его превратят в убийцу, способного противостоять инопланетному вторжению…

Озвучивание: Авторский (одноголосый закадровый)

Видео: х.264, 1280x534 (2,40:1), 23,976 fps, 4210 Кbps, 0.257 bit/pixel

Аудио#1: 48 kHz, AC3 Dolby Digital, 3/2 (L,C,R,l,r) + LFE ch, 640.00 kbps | Гаврилов

Аудио#2: 48 kHz, AC3 Dolby Digital, 3/2 (L,C,R,l,r) + LFE ch, 640.00 kbps | Горчаков

Аудио#3: 48 kHz, AC3 Dolby Digital, 3/2 (L,C,R,l,r) + LFE ch, 640.00 kbps | ENG

игра эндера скачать:

  • скачать
  • скачать
  • Другие статьи

    Игра Эндера скачать фильм бесплатно, Торрент

    Игра Эндера /Ender's Game/

    Игра эндера скачать

    Игра Эндера /Ender's Game/

    Фантастика, Боевик, Приключения

    2013, Октябрь, 25

    2013, Октябрь, 31

    2,18 Gb + 1,37 Gb + Торрент

    1 час 53 минуты

    Summit Entertainment, Odd Lot Entertainment

    Гэвин Худ, Орсон Скотт Кард

    Эйса Баттерфилд, Харрисон Форд, Бен Кингсли, Виола Дэвис, Хейли Стайнфелд, Эбигейл Бреслин, Мойзес Ариас, Нонсо Анози, Арамис Найт и др.

    12+ (достигшим 12 лет)

    Действие происходит в 2135 году. Человечество пережило два вторжения инопланетной расы, лишь чудом уцелев, и готовится к очередному вторжению. Для поиска пилотов и военачальников, способных принести Земле победу, создаётся военная школа, в которую отправляют самых талантливых детей с раннего возраста.

    Фильм основан на научно-фантастическом романе Орсона Скотта Карда. Роман получил премии «Небьюла» и «Хьюго» как лучший роман в 1985 и 1986 годах — одни из самых престижных литературных премий в области научной фантастики.

    Работы над различными версиями киносценария по «Игре Эндера» шли приблизительно с начала 2000 годов.

    Игра Эндера

    Игра Эндера / Ender's Game (2013) BDRip-AVC

    Игра эндера скачать

    Игра эндера скачать

    Название: Игра Эндера

    Оригинальное название: Ender's Game

    Режиссер: Гэвин Худ

    В ролях: Эйса Баттерфилд, Харрисон Форд, Бен Кингсли, Виола Дэвис, Хейли Стайнфелд, Эбигейл Бреслин, Арамис Найт, Сурадж Партха, Мойзес Ариас, Кайлин Рамбо

    Перевод: Авторский (одноголосый закадровый) [Гаврилов]

    Субтитры: Русские, английские

    Качество: BDRip (AVC)

    Видео: MPEG-4 AVC, 1513 kb/s, 1024x424

    Аудио: Русский, английский ( AC3, 6 ch, 448 Кбит/с)

    Unique ID : 179766635682348552594846413470051143505 (0x873DCB6F3F2209B2BD12A98522890F51)

    Complete name : C:Enders.Game.2013.A.BDRip.AVC.ExKinoRay.mkv

    Format version : Version 2

    File size : 1.92 GiB

    Duration : 1h 53mn

    Overall bit rate : 2 410 Kbps

    Movie name : ExKinoRay by Enigma-Vladislav71

    Encoded date : UTC 2014-06-27 21:01:19

    Writing application : mkvmerge v4.9.1 ('Ich will') built on Jul 11 2011 23:53:15

    Writing library : libebml v1.2.1 + libmatroska v1.1.1

    Format/Info : Advanced Video Codec

    Format profile : High@L4.1

    Format settings, CABAC : Yes

    Format settings, ReFrames : 8 frames

    Codec ID : V_MPEG4/ISO/AVC

    Duration : 1h 53mn

    Bit rate : 1 513 Kbps

    Width : 1 024 pixels

    Height : 424 pixels

    Display aspect ratio : 2.40:1

    Frame rate mode : Constant

    Frame rate : 23.976 fps

    Color space : YUV

    Chroma subsampling : 4:2:0

    Bit depth : 8 bits

    Scan type : Progressive

    Stream size : 1.17 GiB (61%)

    Writing library : x264 core 116 r2044 392e762

    Encoding settings : cabac=1 / ref=8 / deblock=1:-2:-1 / analyse=0x3:0x113 / me=umh / subme=9 / psy=1 / psy_rd=1.00:0.20 / mixed_ref=1 / me_range=32 / chroma_me=1 / trellis=2 / 8x8dct=1 / cqm=0 / deadzone=21,11 / fast_pskip=0 / chroma_qp_offset=-3 / threads=12 / sliced_threads=0 / nr=0 / decimate=0 / interlaced=0 / bluray_compat=0 / constrained_intra=0 / bframes=8 / b_pyramid=2 / b_adapt=2 / b_bias=0 / direct=3 / weightb=1 / open_gop=0 / weightp=2 / keyint=240 / keyint_min=23 / scenecut=40 / intra_refresh=0 / rc_lookahead=50 / rc=2pass / mbtree=1 / bitrate=1513 / ratetol=1.0 / qcomp=0.60 / qpmin=0 / qpmax=69 / qpstep=4 / cplxblur=20.0 / qblur=0.5 / ip_ratio=1.40 / aq=1:1.00

    Format/Info : Audio Coding 3

    Mode extension : CM (complete main)

    Format settings, Endianness : Big

    Codec ID : A_AC3

    Duration : 1h 53mn

    Bit rate mode : Constant

    Bit rate : 448 Kbps

    Channel(s) : 6 channels

    Channel positions : Front: L C R, Side: L R, LFE

    Sampling rate : 48.0 KHz

    Bit depth : 16 bits

    Compression mode : Lossy

    Stream size : 365 MiB (19%)

    Format/Info : Audio Coding 3

    Mode extension : CM (complete main)

    Format settings, Endianness : Big

    Codec ID : A_AC3

    Duration : 1h 53mn

    Bit rate mode : Constant

    Bit rate : 448 Kbps

    Channel(s) : 6 channels

    Channel positions : Front: L C R, Side: L R, LFE

    Игра Эндера

    Игра Эндера / Ender's Game (2013) TS

    Игра эндера скачать

    Оригинальное наименование: Ender's Game

    Год выпуска: 2013

    Категория: Фантастика, боевик, приключения

    Режиссер постановщик: Гэвин Худ

    В главных ролях: Эйса Баттерфилд, Харрисон Форд, Бен Кингсли, Виола Дэвис, Хейли Стайнфелд, Эбигейл Бреслин, Арамис Найт, Сурадж Партха, Мойзес Ариас, Кайлин Рамбо

    Действие происходит в 2135 году. Человечество пережило два вторжения инопланетной расы «жукеров», лишь чудом уцелев, и готовится к очередному вторжению. Для поиска пилотов и военачальников, способных принести Земле победу, создаётся военная школа, в которую отправляют самых талантливых детей. Среди этих детей Эндрю (Эндер) Виггин, будущий полководец Международного флота Земли и единственная надежда человечества на спасение.

    Видео: AVI (XviD) 1743 kb/s, 720x366

    Аудио: AC3, 192 kb/s (2 ch)

    Примечание: Отсутствуют титры в конце фильма!

    Игра Эндера

    Игра Эндера / Ender's Game (2013) HDRip / BDRip Скачать торрент бесплатно

    Оригинальное название: Ender's Game

    Слоган: «Это не игра»

    Сценарий: Гэвин Худ, Орсон Скотт Кард

    Продюсер: Орсон Скотт Кард, Роберт Чартофф, Линн Хенди

    Оператор: Доналд МакЭлпайн

    Композитор: Стив Яблонски

    Студии: Chartoff Productions, Digital Domain Media Group, Kurtzman Orci Paper Products, Odd Lot Entertainment, Summit Entertainment, Tomkats Catering

    Жанр: фантастика, боевик, приключения

    Качество: HDRip / BDRip

    Бюджет: $110 000 000

    Сборы в мире: + $9 137 000 = $37 137 000

    Зрители: 73.1 тыс

    Премьера (мир): 24 октября 2013

    Премьера (РФ): 31 октября 2013, «West»

    Время: 114 мин. / 01:54

    Рейтинг КиноПоиска: 7.226 (1970)

    Рейтинг IMDB: 6.90 (3001)

    Рейтинг MPAA:

    Несколько раз Земля содрогалась под натиском инопланетных захватчиков жукеров. Два раза земляне отбивались, и при этом потеряли большую часть человечества. Теперь жукеры знают все слабые места и бреши в обороне людей, и готовят третью завершающую атаку, которая должна сломить сопротивление землян. Для борьбы с инопланетными захватчиками строится специализированная школа для тренировки пилотов, туда отправляют самых лучших детей со всего мира. Земле нужны новые солдаты, мыслящие по другому и не знающие страха, только в этом случае у людей есть шанс на победу. Главный герой Эндрю попадает в эту школу, на него возводятся огромные надежды, именно в его руках будет судьба всего человечества.

    Видео: 1631 kb/s, 720x304

    Аудио: AC3, 192 kb/s (2 ch)

    Перевод: Дублированный - Чистый звук

    Видео: 1870 kb/s, 720x304

    Аудио: AC3, 320 kb/s (2 ch) / English: AC3, 384 kb/s (6 ch)

    Перевод: Дублированный - Чистый звук

    Видео: MPEG-4 AVC, 4790 Кбит/с, 1280x534

    Аудио: Русский (AC3, 2 ch, 320 Кбит/с), английский (DTS, 6 ch, 1510 Кбит/с)

    Перевод: Дублированный - Чистый звук

    Видео: MPEG-4 AVC, 9236 Кбит/с, 1920x800

    Аудио: Русский (AC3, 2 ch, 320 Кбит/с), английский (DTS, 6 ch, 1510 Кбит/с)

    Перевод: Дублированный - Чистый звук