Софт-Архив

Justice League Dark скачать торрент

Рейтинг: 4.2/5.0 (664 проголосовавших)

Категория: Торрент-файлы

Описание

Скачать Темная Вселенная

Темная Вселенная / Тёмная Лига Справедливости / Justice League Dark (2017) BDRip 720р

Название: Темная Вселенная (Тёмная Лига Справедливости)

Оригинальное название: Justice League Dark

Год выхода: 2017

Жанр: Мультфильм, фантастика, фэнтези, боевик, триллер, комикс, полнометражный

Режиссер: Джей Олива

Розарио Доусон, Камилла Ладдингтон, Джейсон О’Мара, Альфред Молина, Джерри О`Коннелл, Джереми Дэвис, Рэй Чейз, Мэтт Райан, Ди Брэдли Бэйкер, Роджер Р. Кросс

Перевод: Любительский многоголосый закадровый Shadow Dub

Перевод - SpeedForce Interpreters

Роли озвучивали: Евгений Леонов, Ksedden Kurai, Руслан Асланов, Анастасия Гайдаржи, Марина Фандера, Василий Чупров, Нана Саркисян, Алёна Тельпук, Игорь Николаенков, Дмитрий Фокин & Игорь Хрусталев

Звукорежиссёр и монтаж - Руслан Асланов.

Качество: BDRip (720p)

Видео: MPEG-4 AVC, 4806 Кбит/с, 1280x720

Аудио: Русский (AC3, 6 ch, 384 Кбит/с), английский (AC3, 6 ch, 384 Кбит/с)

Justice league dark скачать торрент:

  • скачать
  • скачать
  • Другие статьи

    Justice league dark скачать торрент

    Темная Вселенная / Тёмная Лига Справедливости / Justice League Dark (2017) BDRip 720р | Shadow Dub

    Justice league dark скачать торрент

    Оригинальное название: Justice League Dark

    Год выхода: 2017

    Режиссер: Джей Олива

    Розарио Доусон, Камилла Ладдингтон, Джейсон О’Мара, Альфред Молина, Джерри О`Коннелл, Джереми Дэвис, Рэй Чейз, Мэтт Райан, Ди Брэдли Бэйкер, Роджер Р. Кросс

    Мультфильм «Темная Лига Справедливости (Justice League Dark)» очень порадует поклонников супергероев DC. Главой группы сверхъестественных героев выступает Джон Константин, в команду которого входят - Болотная тварь, Затанна, Мертвец, Демон и Черная орхидея. Все они объединяются в Темную Лигу Справедливости, чтобы взять на себя оккультные и сверхъестественные угрозы, против которых Лига Справедливости может оказаться бессильной. Сюжет многообещающий, и не зря, ведь сценаристом этого шедевра является Гильермо дель Торо.

    Перевод: Любительский многоголосый закадровый Shadow Dub

    Перевод - SpeedForce Interpreters

    Роли озвучивали: Евгений Леонов, Ksedden Kurai, Руслан Асланов, Анастасия Гайдаржи, Марина Фандера, Василий Чупров, Нана Саркисян, Алёна Тельпук, Игорь Николаенков, Дмитрий Фокин & Игорь Хрусталев

    Звукорежиссёр и монтаж - Руслан Асланов.

    Аудио: Русский (AC3, 6 ch, 384 Кбит/с), английский (AC3, 6 ch, 384 Кбит/с)

    Скачать мультфильм Темная Вселенная

    Скачать мультфильм Темная Вселенная / Темная лига справедливости / Justice League Dark (Джей Олива) [2017, мультфильм, фантастика, фэнтези, боевик, триллер, BDRip] 2xMVO - торрент

    Скачать мультфильм через торрент бесплатно. Мультфильм доступен на нашем торрент-трекере бесплатно, без регистрации и смс.

    __________________ «Every super hero has a dark side»

    Justice league dark скачать торрент

    Перевод:

    • Любительский (многоголосый, закадровый) | Cтудия Saint-Sound.TV

    Субтитры: русские; английские

    Режиссер: Джей Олива

    2000 kbps avg, 0.29 bit/pixel

    Аудио# 1: русский: 48 kHz, AC3 Dolby Digital, 2/0 (L,R) ch,

    192 kbps | Любительский (многоголосый, закадровый) [Saint-Sound.TV] |

    Аудио# 2: русский: 48 kHz, AC3 Dolby Digital, 2/0 (L,R) ch,

    384 kbps | Любительский (многоголосый, закадровый) [Shadow Dub] |

    Аудио# 3: английский: 48 kHz, AC3 Dolby Digital, 2/0 (L,R) ch,

    192 kbps | Оригинал |

    Полное имя : Justice.League.Dark Justice.League.Dark.avi

    Формат/Информация : Audio Video Interleave

    Размер файла : 1,48 Гбайт

    Продолжительность : 1 ч. 15 м.

    Общий поток : 2787 Кбит/сек

    Программа кодирования : VirtualDubMod 1.5.10.3 | www.virtualdub-fr.org || (build 2550/release)

    Библиотека кодирования : VirtualDubMod build 2550/release

    Формат : MPEG-4 Visual

    Профиль формата : Advanced Simple@L5

    Параметр BVOP формата : 1

    Параметр QPel формата : Нет

    Параметр GMC формата : Без точки перехода

    Параметр матрицы формата : Выборочная

    Идентификатор кодека : XVID

    Идентификатор кодека/Подсказка : XviD

    Продолжительность : 1 ч. 15 м.

    Битрейт : 2000 Кбит/сек

    Ширина : 720 пикс.

    Высота : 400 пикс.

    Соотношение сторон : 16:9

    Частота кадров : 23,976 кадр/сек

    Цветовое пространство : YUV

    Подвыборка цветности : 4:2:0

    Битовая глубина : 8 бит

    Тип развёртки : Прогрессивная

    Метод сжатия : С потерями

    Размер потока : 1,06 Гбайт (72%)

    Библиотека кодирования : XviD 73

    Формат/Информация : Audio Coding 3

    Расширение режима : CM (complete main)

    Идентификатор кодека : 2000

    Продолжительность : 1 ч. 15 м.

    Вид битрейта : Постоянный

    Битрейт : 192 Кбит/сек

    Канал(ы) : 2 канала(ов)

    Расположение каналов : Front: L R

    Частота : 48,0 КГц

    Битовая глубина : 16 бит

    Метод сжатия : С потерями

    Размер потока : 104 Мбайт (7%)

    Выравнивание : Разделение по промежуткам

    Продолжительность промежутка : 42 мс. (1,00 видеокадр)

    Время предзагрузки промежутка : 500 ms

    Заголовок : Russian (Saint-Sound.TV)

    Формат/Информация : Audio Coding 3

    Расширение режима : CM (complete main)

    Идентификатор кодека : 2000

    Продолжительность : 1 ч. 15 м.

    Вид битрейта : Постоянный

    Битрейт : 384 Кбит/сек

    Канал(ы) : 2 канала(ов)

    Расположение каналов : Front: L R

    Частота : 48,0 КГц

    Битовая глубина : 16 бит

    Метод сжатия : С потерями

    Размер потока : 208 Мбайт (14%)

    Выравнивание : Разделение по промежуткам

    Продолжительность промежутка : 42 мс. (1,00 видеокадр)

    Время предзагрузки промежутка : 500 ms

    Заголовок : Russian (Shadow Dub)

    Формат/Информация : Audio Coding 3

    Расширение режима : CM (complete main)

    Идентификатор кодека : 2000

    Продолжительность : 1 ч. 15 м.

    Вид битрейта : Постоянный

    Битрейт : 192 Кбит/сек

    Канал(ы) : 2 канала(ов)

    Расположение каналов : Front: L R

    Частота : 48,0 КГц

    Битовая глубина : 16 бит

    Метод сжатия : С потерями

    Размер потока : 104 Мбайт (7%)

    Выравнивание : Разделение по промежуткам

    Продолжительность промежутка : 42 мс. (1,00 видеокадр)

    Время предзагрузки промежутка : 500 ms

    Justice league dark скачать торрент Justice league dark скачать торрент Justice league dark скачать торрент Justice league dark скачать торрент

    Justice league dark скачать торрент Justice league dark скачать торрент Justice league dark скачать торрент Justice league dark скачать торрент

    Justice league dark скачать торрент Justice league dark скачать торрент Justice league dark скачать торрент Justice league dark скачать торрент

    Информация о торренте:

    Скачан: 2008 раз

    Статус: Проверен Зарегистрирован на трекере: 2017-02-24 14:25

    Тёмная Лига Справедливости

    Тёмная Лига Справедливости / Justice League Dark (2017) WEBRip 720p

    Justice league dark скачать торрент

    Название: Тёмная Лига Справедливости

    Оригинальное название: Justice League Dark

    Жанр: мультфильм, фантастика, фэнтези, боевик, триллер

    Режиссер: Джей Олива

    В ролях: Розарио Доусон,Камилла Ладдингтон,Джейсон О’Мара,Альфред Молина,Джерри О’Коннелл,Джереми Дэвис,Рэй Чейз,Мэтт Райан,Ди Брэдли Бейкер,Роджер Р. Кросс

    Мультфильм «Темная Лига Справедливости (Justice League Dark)» очень порадует поклонников супергероев DC. Главой группы сверхъестественных героев выступает Джон Константин, в команду которого входят - Болотная тварь, Затанна, Мертвец, Демон и Черная орхидея. Все они объединяются в Темную Лигу Справедливости, чтобы взять на себя оккультные и сверхъестественные угрозы, против которых Лига Справедливости может оказаться бессильной. Сюжет многообещающий, и не зря, ведь сценаристом этого шедевра является Гильермо дель Торо.

    Студия: DC Entertainment, Warner Bros. Animation

    Закадровые голоса: Анастасия Лаглер, Иван Мтрск

    Скачать торрент Тёмная Лига Справедливости

    Тёмная Лига Справедливости

    Название: Тёмная Лига Справедливости

    Оригинальное название: Justice League Dark

    Год выхода: 2017

    Жанр: Мультфильм, Фантастика, Фэнтези, Боевик, Триллер

    Режиссер: Джей Олива

    В ролях: Розарио Доусон,Камилла Ладдингтон,Джейсон О’Мара,Альфред Молина,Джерри О’Коннелл,Джереми Дэвис,Рэй Чейз,Мэтт Райан,Ди Брэдли Бейкер,Роджер Р. Кросс

    Мультфильм «Темная Лига Справедливости» будет по нраву поклонникам супергероев DC. Джон Константин возглавляет группу супер-героев, обладающих уникальными возможностями. В его команде — Болотная тварь, Затана, Демон, Черная орхидея и Мертвец. Они создают Темную Лигу Справедливости, чтобы противостоять сверхъестественным и оккультным угрозам, против которой обычная Лига Справедливости попросту бессильна. Сюжет мультфильма довольно многообещающий. И не зря — сценарист картины — Гильермо дель Торо.

    Студия: DC Entertainment, Warner Bros. Animation

    Перевод: Профессиональный (двухголосый закадровый) [ZM-SHOW]

    Закадровые голоса: Анастасия Лаглер, Иван Мтрск