Софт-Архив

комната фильм 2003 скачать торрент

Рейтинг: 4.3/5.0 (214 проголосовавших)

Категория: Торрент-файлы

Описание

Скачать фильм Тайна желтой комнаты

Скачать фильм Тайна желтой комнаты / Le mystere de la chambre jaune (Бруно Подалидес) [2003, детектив, DVDRip] MVO - торрент

Торрент можно скачать, нажав синюю кнопку ниже. Фильм доступен на нашем торрент-трекере бесплатно, без регистрации и смс.

Комната фильм 2003 скачать торрентПеревод: Профессиональный (многоголосый, закадровый)

Режиссер: Бруно Подалидес

1235 kbps avg, 0.23 bit/pixel

Аудио: 48 kHz, AC3 Dolby Digital, 3/2 (L,C,R,l,r) ch,

Комната фильм 2003 скачать торрент

Комната фильм 2003 скачать торрент

Комната фильм 2003 скачать торрент

Комната фильм 2003 скачать торрент

Информация о торренте:

Скачан: 10724 раза

Статус: Проверен Зарегистрирован на трекере: 2012-07-08 20:45

комната фильм 2003 скачать торрент:

  • скачать
  • скачать
  • Другие статьи

    Смежные комнаты (2003) DVDRip, MB

    комната фильм 2003 скачать торрент

    Комната фильм 2003 скачать торрент

    Комната фильм 2003 скачать торрент

    Описание: Действие фильма происходит в течение одного дня в старой петербургской квартире, где собралась большая компания морально-нравственных уродов и извращенцев. Впрочем, душа у этих "отморозков" добрая, светлая.

    Но именно в этом фильме показан человеческий катарсис, реальное психологическое потрясение наряду с весьма филосовскими рассуждениями о природе любви. Забавно, но именно этот фильм вызвал бурю эмоций у зрителя, как положительных так и не очень, спровоцировав первое и последнее на моей памяти довольно серьезное и эмоциональное обсуждение увиденного с автором, членами жюри фестиваля и зрителями." (содрано в яндексе)

    Продолжительность: 66 минут

    Режиссер: Константин Селиверстов

    В ролях: Евгений Волков , Николай Микенин , Цецилия Селиверстова , Владимир Тыминский

    Видео: 704x528 (1.33:1), 25 fps, XviD build 47

    1872 kbps avg, 0.20 bit/pixel

    Аудио: 48 kHz, MPEG Layer 3, 2 ch,

    Трагедия в комнате (2003) скачать торрент (torrent) бесплатно - A tragic room

    комната фильм 2003 скачать торрент

    Комната фильм 2003 скачать торрент

    Комната фильм 2003 скачать торрент

    Комната фильм 2003 скачать торрент

    Комната фильм 2003 скачать торрент

    Комната фильм 2003 скачать торрент

    * Форматы и их краткое описание.

    AVI - видео кодеки XviD, стандартное разрешение фильма 720x384;

    MKV - видео кодеки AVC, стандартное разрешение фильма 720x384;

    MKV 720р - видео кодеки H.26x или AVC, стандартное разрешение фильма 1280 x 720;

    MKV 1080р - видео кодеки H.26x или AVC, стандартное разрешение фильма 1920x1080;

    DVD video - образ DVD диска, видео кодеки MPEG2, стандартное разрешение фильма 720x576.

    M2TS - образ Blu-Ray диска, стандартное разрешение фильма 1920x1080;

    Трагедия в комнате (A tragic room) год выпуска 2003 скачать торрент бесплатно, без регистрации и SMS (СМС).

    Скачать Комната

    Комната / The Room (2003) HDRip [VO]

    Пиры будут получены при скачивании

    Комната фильм 2003 скачать торрент

    Откуда: Рівне Західна Україна

    Комната фильм 2003 скачать торрент

    15-Мар-2016 15:42

    Комната фильм 2003 скачать торрент

    Жанр: Драма, Комедия

    Режиссер: Томми Вайсо

    Актеры: Томми Вайсо, Джульетт Даниэль, Грег Сестеро, Филип Халдиман, Кэролин Миннотт, Робин Пэрис, Майк Холмс, Дэн Джанджиджиан, Кайл Вогт, Грег Эллери

    У Джонни есть всё — отличная работа, квартира в Сан-Франциско, лучший друг Марк и невеста Лиза, и близится его день рождения. Но все меняется, когда Марк и Лиза заводят роман…

    Качество видео: HDRip

    Перевод: Одноголосый закадровый (Ze6ypo)

    Язык субтитров: Русский, английский

    Вид субтитров: Отдельным файлом

    Видео: Xvid, 704x400,

    Аудио 1: Rus AC3, 2 ch, 192 Kbps, CBR

    Аудио 2: Eng AC3, 6 ch, 448 Kbps, CBR (Отдельным файлом)

    Mediainfo:

    Полное имя : C:\Users\User\Downloads\The Room 2003 HDRip\The.Room.2003.hdrip_[1.46].avi

    Формат/Информация : Audio Video Interleave

    Размер файла : 1,46 Гбайт

    Продолжительность : 1 ч. 39 м.

    Общий поток : 2087 Кбит/сек

    Программа кодирования : VirtualDubMod 1.5.10.3 | [url=http://www.virtualdub-fr.org]www.virtualdub-fr.org[/url] || (build 2550/release)

    Библиотека кодирования : VirtualDubMod build 2550/release

    Формат : MPEG-4 Visual

    Параметр BVOP формата : 1

    Параметр QPel формата : Нет

    Параметр GMC формата : Без точки перехода

    Параметр матрицы формата : Выборочная

    Идентификатор кодека : XVID

    Идентификатор кодека/Подсказка : XviD

    Продолжительность : 1 ч. 39 м.

    Битрейт : 1886 Кбит/сек

    Ширина : 704 пикселя

    Высота : 400 пикселей

    Соотношение сторон : 16:9

    Частота кадров : 23,976 (23976/1000) кадра/сек

    Цветовое пространство : YUV

    Субдискретизация насыщенности : 4:2:0

    Битовая глубина : 8 бит

    Тип развёртки : Прогрессивная

    Метод сжатия : С потерями

    Размер потока : 1,32 Гбайт (90%)

    Библиотека кодирования : XviD 73

    Формат/Информация : Audio Coding 3

    Расширение режима : CM (complete main)

    Параметр Endianness формата : Big

    Идентификатор кодека : 2000

    Продолжительность : 1 ч. 39 м.

    Вид битрейта : Постоянный

    Битрейт : 192 Кбит/сек

    Каналы : 2 канала

    Расположение каналов : Front: L R

    Частота : 48,0 КГц

    Частота кадров : 31,250 кадров/сек (1536 spf)

    Метод сжатия : С потерями

    Размер потока : 137 Мбайт (9%)

    Выравнивание : Разделение по промежуткам

    Продолжительность промежутка : 42 мс. (1,00 видеокадр)

    Время предзагрузки промежутка : 500 мс.

    Дополнительная информация:

    В 2013 году Грег Сестеро написал книгу The Disaster Artist о съёмках фильма, где попытался объяснить причины происходящего на экране. В декабре 2015 года начались съёмки одноимённого фильма, спродюсированные Джеймсом Франко и Сетом Рогеном, поклонниками оригинальной кинокартины. Франко сыграет Вайсо, его брат Дэйв Франко — Сестеро, а Эри Грейнор — Даниэль.

    Время раздачи: С 15:00 до 21:30 (до появления первых 3-5 скачавших)

    Текущее время: Сегодня 20:59

    Часовой пояс: GMT + 4

    Вы не можете отвечать на сообщения

    Вы не можете редактировать свои сообщения

    Вы не можете удалять свои сообщения

    Вы не можете голосовать в опросах

    Вы не можете прикреплять файлы к сообщениям

    Вы можете скачивать файлы

    Search Powered by Sphinx

    Powered by TorrentPier II © Meithar, TorrentPier II Team

    Комната фильм 2003 скачать торрент

    Комната / The Room (2003) HDRip [VO]

    Комната фильм 2003 скачать торрент

    Поблагодарил(а): 189 раз(а)"> 94.5%

    Жанр: Драма, Комедия

    Актеры: Томми Вайсо, Джульетт Даниэль, Грег Сестеро, Филип Халдиман, Кэролин Миннотт, Робин Пэрис, Майк Холмс, Дэн Джанджиджиан, Кайл Вогт, Грег Эллери

    У Джонни есть всё — отличная работа, квартира в Сан-Франциско, лучший друг Марк и невеста Лиза, и близится его день рождения. Но все меняется, когда Марк и Лиза заводят роман…

    Качество видео: HDRip

    Перевод: Одноголосый закадровый (Ze6ypo)

    Язык субтитров: Русский, английский

    Вид субтитров: Отдельным файлом

    Аудио 1: Rus AC3, 2 ch, 192 Kbps, CBR

    Аудио 2: Eng AC3, 6 ch, 448 Kbps, CBR (Отдельным файлом)

    В 2013 году Грег Сестеро написал книгу The Disaster Artist о съёмках фильма, где попытался объяснить причины происходящего на экране. В декабре 2015 года начались съёмки одноимённого фильма, спродюсированные Джеймсом Франко и Сетом Рогеном, поклонниками оригинальной кинокартины. Франко сыграет Вайсо, его брат Дэйв Франко — Сестеро, а Эри Грейнор — Даниэль.