Софт-Архив

марчелло бенедетто скачать торрент

Рейтинг: 4.6/5.0 (24 проголосовавших)

Категория: Торрент-файлы

Описание

Марчелло бенедетто скачать торрент

(Baroque/Can tata) Marcello Benedetto – Cassandra/ Bach J.S. - Concerto c-moll after B.Marcello, BWV 981 (Kai Wessel, David Blunden) - 2010, APE (image+.cue), lossless

Стаж: 8 лет 10 месяцев

Arleg · 20-Окт-10 18:27 (6 лет 10 месяцев назад, ред. 20-Окт-10 18:37)

Год выпуска диска : 2010

Производитель диска : Франция

Издатель (лейбл) : Aeon

Номер по каталогу : AECD 1087

Дата записи : 2009

Аудио кодек : APE

Тип рипа : image+.cue

Битрейт аудио : lossless

Источник : Собственный рип

Наличие сканов в содержимом раздачи : да

Kai Wessel - contreténor

David Blunden - clavecin

Marcello Benedetto – Cassandra (Cantata per Alto) :

01. Odi, o Troja, Cassandra!

02. Satto il piè de' soldati, e de' cavalli

03. Nell'aureo Talamo

04. M'a il furibondo Greco

05. Ahi spettacolo mesto

06. e suonan le contrade ampie di Troja

07. Altri pianti e lamenti

08. O come incalza collui che feri' Marte!

09. O misero! non sai

10. Ove mi fugo mai, dove mi celo?

11. Alla corrente del Xanto sbalza

12. O Priamo, egli e tuo sangue!

13. Vieni ò sposa

14. Ei cade sulla polve

15. Va tutto in pianto, ed in tumulto Troja

16. Chi nell'Abisso mi sotterra?

Bach - Concerto c-moll after B.Marcello, BWV 981 :

20. IV. Prestissimo

EAC extraction logfile from 20. October 2010, 19:01

Kai Wessel, David Blunden / Marcello Benedetto - Cassandra

Used drive : PIONEER DVD-RW DVR-218L Adapter: 1 ID: 0

Read mode : Secure

Utilize accurate stream : Yes

Defeat audio cache : Yes

Make use of C2 pointers : No

Read offset correction : 6

Overread into Lead-In and Lead-Out : No

Fill up missing offset samples with silence : Yes

Delete leading and trailing silent blocks : No

Null samples used in CRC calculations : Yes

Used interface : Native Win32 interface for Win NT & 2000

Used output format : Internal WAV Routines

Sample format : 44.100 Hz; 16 Bit; Stereo

TOC of the extracted CD

Track | Start | Length | Start sector | End sector

марчелло бенедетто скачать торрент:

  • скачать
  • скачать
  • Другие статьи

    TR24 OF Alison Balsom (feat

    [TR24][OF] Alison Balsom (feat. Scottish Ensemble) - Italian Concertos (Antonio Vivaldi, Benedetto Marcello, Tomaso Albinoni, Domenico Cimarosa, Giuseppe Tartini) - 2010/2014 (Classical / Trumpet)

    Марчелло бенедетто скачать торрент

    Стаж: 4 года 1 месяц

    becasiana · 20-Май-15 10:58 (2 года 3 месяца назад, ред. 10-Июн-17 19:03)

    Italian Concertos Год издания/переиздания диска : 2010/2014

    Жанр : Classical | Издатель (лейбл) : Warner Classics

    Продолжительность : 01:01:46 | Наличие сканов : Sleeve Alison Balsom, trumpet

    Scottish Ensemble Контейнер : FLAC (*.flac) | Тип рипа : tracks

    Разрядность : 24bit /44.1kHz | Количество каналов : 2.0

    Antonio Vivaldi (1678-1741)

    Violin Concerto in A minor RV 356

    01. I. Allegro (2:37)

    02. II. Largo (2:34)

    03. III. Presto (2:35)

    Benedetto Marcello (1686-1739)

    Oboe Concerto in C minor

    04. I. Andante spicato (3:11)

    05. II. Adagio (4:25)

    06. III. Presto (3:05)

    Tomaso Albinoni (1671-1751)

    Oboe Concerto in B flat major Op.7 No.3

    07. I. Allegro (2:38)

    08. II. Adagio (2:35)

    09. III. Allegro (2:11)

    Domenico Cimarosa (1749-1801)

    Oboe Concerto in C minor

    10. I. Introduzione (Larghetto) (2:40)

    11. II. Allegro (2:08)

    12. III. Siciliana (2:24)

    13. IV Allegro giusto (2:38)

    Violin Concerto in G major RV 310

    14. I. Allegro (2:13)

    15. II. Largo (3:04)

    16. III. Allegro (2:32)

    Giuseppe Tartini (1692-1770)

    arr. Wallace & Wrigth

    Trumpet Concerto in D major D53

    17. I. Allegro (3:52)

    18. II. Andante (2:53)

    19. III. Allegro grazioso (3:04)

    Sonata da Chiesa in D minor

    20. I. Adagio (2:24)

    21. II. Allegro (2:03)

    22. III. Largo (1:56)

    23. IV. Allegro (2:04)

    She makes the trumpet sing with an irresistible exuberance and eloquence. With the human voice a particular inspiration in the music of Italy, the words of The Times have a special resonance for Alison Balsom in these works composed or inspired by Italian composers of the 18th century. This collection provides an apt vehicle for the award-winning trumpeter's characteristic brilliance and grace.

    Following the popular and critical international success of her Haydn and Hummel concertos recording, Alison Balsom has recorded a programme of Italian Baroque concertos. The album has quickly garnered critics’ praise: “The fast movements are played with sparkling ease and technical brilliance. The slow movement [Balsom] forms delicately, tenderly, yet without denying she’s playing a brass instrument.” (MDR Figaro)

    After the release of Caprice in 2006, Gramophone wrote, “It's not often that a young musician appears on the scene abundantly blessed with everything both an A&R and marketing person could dream of, but the young British trumpeter Alison Balsom fulfils just such a dream. She's a musician of prodigious talent with an inquisitive, fresh approach to music-making. She is connected to her public, and rewards their attention with playing of a winning ease and fluency. She has an engaging personality … and the intelligence to take her burgeoning career well in her stride.” In this new recording, Balsom, the 2009 Classical BRIT Artist of the Year, plays popular concertos originally composed for the violin or oboe by Vivaldi, Tartini, B. Marcello, Albinoni and Cimarosa, accompanied by the Scottish Ensemble.

    “The days are long gone when blowing a brass instrument was a male preserve. Even so, the young trumpeter Alison Balsom remains a singular figure. It’s not that she's long and blonde; it's the roar of her talent that makes her stand out, along with her knack for breaking down barriers and making the trumpet so much more than a toot machine.” (The Times)

    Скачать (Classical

    Скачать (Classical / Baroque) Benedetto Marcello - Sinfonie a Quattro / I Solisti di Milano, Angelo Ephrikian [1999, FLAC (image+.cue) lossless] торрент без регистрации

    Полного источника не было: 24 минуты

    Жанр : Classical / Baroque

    Страна-производитель диска : Italy

    Год издания диска : 1999

    Издатель (лейбл) : Rivoalto

    Номер по каталогу : CRA 8914

    Дата записи : 1967

    Тип рипа : image+.cue

    Битрейт аудио : lossless

    Наличие сканов в содержимом раздачи : да

    I Solisti di Milano

    Дирижер Angelo Ephrikian

    Sinfonie Nr. 1 B-dur

    Sinfonie Nr. 2 A-dur

    Sinfonie Nr. 3 G-dur

    7. Adagio e staccato

    Sinfonie Nr. 4 G-dur

    Sinfonie Nr. 5 D-dur

    Отчёт EAC об извлечении, выполненном 25. января 2008, 12:50

    Marcello, Benedetto / Sinfonie a Quattro

    Дисковод: HL-DT-STDVDRAM GSA-T20N Adapter: 0 ID: 0

    Режим чтения : Достоверность

    Использование точного потока : Да

    Отключение кэша аудио : Да

    Использование указателей C2 : Нет

    Коррекция смещения при чтении : 667

    Способность читать области Lead-in и Lead-out : Нет

    Заполнение пропущенных сэмплов тишиной : Да

    Удаление блоков с тишиной в начале и конце : Нет

    При вычислениях CRC использовались нулевые сэмплы : Нет

    Интерфейс : Установленный внешний ASPI-интерфейс

    Выходной формат : Внутренние WAV-операции

    Формат сэмплов : 44.100 Гц; 16 бит; стерео

    TOC извлечённого CD

    Трек | Старт | Длительность | Начальный сектор | Конечный сектор

    1 | 0:00.33 | 2:31.25 | 33 | 11382

    2 | 2:31.58 | 1:19.10 | 11383 | 17317

    3 | 3:50.68 | 1:25.57 | 17318 | 23749

    4 | 5:16.50 | 2:52.70 | 23750 | 36719

    5 | 8:09.45 | 1:01.23 | 36720 | 41317

    6 | 9:10.68 | 3:00.40 | 41318 | 54857

    7 | 12:11.33 | 0:30.40 | 54858 | 57147

    8 | 12:41.73 | 1:34.17 | 57148 | 64214

    9 | 14:16.15 | 1:13.35 | 64215 | 69724

    10 | 15:29.50 | 3:28.25 | 69725 | 85349

    11 | 18:58.00 | 1:58.13 | 85350 | 94212

    12 | 20:56.13 | 1:53.72 | 94213 | 102759

    13 | 22:50.10 | 2:54.33 | 102760 | 115842

    14 | 25:44.43 | 1:24.52 | 115843 | 122194

    15 | 27:09.20 | 1:33.20 | 122195 | 129189

    16 | 28:42.40 | 1:28.03 | 129190 | 135792

    Характеристики диапазона извлечения и сообщения об ошибках

    Имя файла C:\Documents and Settings\Admin\Рабочий стол\Marcello\Sinfonie a Quattro\Marcello, Benedetto - Sinfonie a Quattro.wav

    Пиковый уровень 91.6 %

    Качество диапазона 100.0 %

    CRC копии B3F3FAE3

    Ошибок не произошло

    Трек 1 нет в базе данных

    Трек 2 нет в базе данных

    Трек 3 нет в базе данных

    Трек 4 нет в базе данных

    Трек 5 нет в базе данных

    Трек 6 нет в базе данных

    Трек 7 нет в базе данных

    Трек 8 нет в базе данных

    Трек 9 нет в базе данных

    Трек 10 нет в базе данных

    Трек 11 нет в базе данных

    Трек 12 нет в базе данных

    Трек 13 нет в базе данных

    Трек 14 нет в базе данных

    Трек 15 нет в базе данных

    Трек 16 нет в базе данных

    Ни одного трека нет в базе AccurateRip

    REM DISCID C3071210

    REM COMMENT "ExactAudioCopy v0.99pb3"

    PERFORMER "Marcello, Benedetto"

    TITLE "Sinfonie a Quattro"

    FILE "Marcello, Benedetto - Sinfonie a Quattro.wav" WAVE

    TITLE "Sinfonia n. 1 in si bem. magg. - 1. Largo"

    PERFORMER "Marcello, Benedetto"

    INDEX 00 00:00:00

    INDEX 01 00:00:33

    TITLE "Sinfonia n. 1 in si bem. magg. - 2. Presto"

    PERFORMER "Marcello, Benedetto"

    INDEX 00 02:31:57

    INDEX 01 02:31:58

    TITLE "Sinfonia n. 1 in si bem. magg. - 3. Gavotta"

    PERFORMER "Marcello, Benedetto"

    INDEX 00 03:50:67

    INDEX 01 03:50:68

    TITLE "Sinfonia n. 2 in la magg. - 1. Presto"

    PERFORMER "Marcello, Benedetto"

    INDEX 00 05:11:32

    INDEX 01 05:16:50

    TITLE "Sinfonia n. 2 in la magg. - 2. Largo"

    PERFORMER "Marcello, Benedetto"

    INDEX 00 08:09:44

    INDEX 01 08:09:45

    TITLE "Sinfonia n. 2 in la magg. - 3. Presto"

    PERFORMER "Marcello, Benedetto"

    INDEX 00 09:10:67

    INDEX 01 09:10:68

    TITLE "Sinfonia n. 3 in sol magg. - 1. Adagio e staccato"

    PERFORMER "Marcello, Benedetto"

    INDEX 00 12:03:02

    INDEX 01 12:11:33

    TITLE "Sinfonia n. 3 in sol magg. - 2. Presto"

    PERFORMER "Marcello, Benedetto"

    INDEX 00 12:41:72

    INDEX 01 12:41:73

    TITLE "Sinfonia n. 3 in sol magg. - 3. Largo"

    PERFORMER "Marcello, Benedetto"

    INDEX 00 14:16:14

    INDEX 01 14:16:15

    TITLE "Sinfonia n. 3 in sol magg. - 4. Presto"

    PERFORMER "Marcello, Benedetto"

    INDEX 00 15:29:49

    INDEX 01 15:29:50

    TITLE "Sinfonia n. 4 in sol magg. - 1. Presto"

    PERFORMER "Marcello, Benedetto"

    INDEX 00 18:51:24

    INDEX 01 18:58:00

    TITLE "Sinfonia n. 4 in sol magg. - 2. Largo"

    PERFORMER "Marcello, Benedetto"

    INDEX 01 20:56:13

    TITLE "Sinfonia n. 4 in sol magg. - 3. Presto"

    PERFORMER "Marcello, Benedetto"

    INDEX 00 22:50:09

    INDEX 01 22:50:10

    TITLE "Sinfonia n. 5 in re magg. - 1. Presto"

    PERFORMER "Marcello, Benedetto"

    INDEX 00 25:36:34

    INDEX 01 25:44:43

    TITLE "Sinfonia n. 5 in re magg. - 2. Largo"

    PERFORMER "Marcello, Benedetto"

    INDEX 00 27:09:19

    INDEX 01 27:09:20

    TITLE "Sinfonia n. 5 in re magg. - 3. Presto"

    Скачать mp3 альбом Favorite Baroque Oboe Concertos 1972 года исполнитель Benedetto Marcello бесплатно через торрент клиент Zona и слушать онлайн

    марчелло бенедетто скачать торрент

    Placebo - The never-ending why

  • the sun is out the sky is blue there's not a cloud to spoil the

    Buddy Holly - Raining in My Heart

  • chorus i can't stand the rain against my window bringing back sweet

    La Bouche - I Can't Stand The Rain

  • well how's your view of things today got up young to fade away the

    Biffy Clyro - Bubbles

  • i haven't got much time so i'll get to the point you wanna share a

    Green Day - Stay the Night

  • d a p's to the y nah nah frickin' and this is for my dad uncle b yeah

    N-Dubz - Papa can you hear me

  • i'm very sure this never happened to me before i met you and now i'm

    Paul McCartney - This Never Happened Before

  • alright children the lights are out and the party's over it's time

    My Chemical Romance - Goodnite, Dr. Death

  • today i walked through the door and fell down on my floor got all of

    Foster The People - Chin Music for the Unsuspecting Hero

  • you know them old sugar daddies they be trickin they tell them girls

    T.I. - Whatever You Like

  • jer kad ostaris jer kad ostaris niko ne kuca na tvoja vrata ni potok

    Bijelo Dugme - Jer Kad Ostaris

  • keep knoking keep knoking on my empty heart i might open i might

    Mushmellow - Hate

  • i know secrets about you that's true i do i know something about you

    Engel - Perfect Isis

  • who's got the brain of jfk what's it mean to us now oh it's sound

    Pearl Jam - Brain of J.

  • we became the parade on the streets that we once cleaned expendable

  • Marcello De Angelis - Nu Disco (2015) - скачать торрент бесплатно

    Marcello De Angelis - Nu Disco (2015)

    Марчелло бенедетто скачать торрент Марчелло бенедетто скачать торрент

    Марчелло бенедетто скачать торрент

    • ИСПОЛНИТЕЛЬ: Marcello De Angelis
    • АЛЬБОМ / НАЗВАНИЕ: Nu Disco
    • ГОД / ДАТА ВЫХОДА: 2015
    • ТОЧНЫЙ ЖАНР(Ы): Nu Disco
    • ПРОДОЛЖИТЕЛЬНОСТЬ: 00:41:39
    • ФОРМАТ: MP3
    • КАЧЕСТВО: 320 kbps

    Описание альбома

    02. Girls on Film

    03. The London Look

    10. Ladies Night

    • Марчелло бенедетто скачать торрент

    Marcello De Angelis - Nu Disco (2015) - скачать торрент бесплатно.

    Скачать альбом Marcello De Angelis - Nu Disco (2015) бесплатно и без регистрации через торрент в MP3.

    Скачать торрент вы можете в начале страницы.

    Музыка по стилям и направлениям

    2010–2017. © Sound Park — Музыкальный торрент трекер. Связь с администратором - [email protected]

    Пожалуйста включите Javascript, иначе данный и другие сайты могут работать не корректно! Узнать как включить Javascript можно на Google Support