Софт-Архив

ника сериал скачать торрент

Рейтинг: 4.0/5.0 (251 проголосовавших)

Категория: Торрент-файлы

Описание

Скачать торрент Ника 01-04 из 04 (2015) WEB-DLRip-AVC от Files-x

Скачать торрент Ника [01-04 из 04] (2015) WEB-DLRip-AVC от Files-x

Ника сериал скачать торрент

Ника сериал скачать торрент

Оригинальное название: Ника

Режиссер: Валентин Донсков

В ролях: Анна Миклош, Сергей Чирков, Натали Старынкевич, Илья Коврижных, Михаил Владимиров, Сергей Генкин, Юрий Ваксман, Михаил Левченко, Сергей Марухин

Нику подставляет муж, и она попадает в тюрьму. На зоне она знакомится с "медвежатницей" Дженни, и вскоре они становятся подругами. Через два года, выйдя из тюрьмы, Дженни решает помочь Нике вернуть дом и наказать мужа. Вскоре к девушкам присоединяется брат Дженни – аферист Ден. Так трое молодых людей становятся современными Робин Гудами и спасают умирающую девочку, наказывают врача-взяточника, находят управу на бизнесмена-бандита, защищают обманутых стариков.

ника сериал скачать торрент:

  • скачать
  • скачать
  • Другие статьи

    Ника (1-4 серии из 4) (2015) SATRip через торрент фильм бесплатно

    Ника (1-4 серии из 4) (2015) SATRip

    Ника сериал скачать торрент

    Ника сериал скачать торрент

    Произведено: Россия / Централ Партнершип

    Режиссер постановщик: Валентин Донсков

    В главных ролях: Анна Миклош, Натали Старынкевич, Сергей Чирков, Валентина Шанаева

    1800 kb/s, 720x400

    Аудио данные: МР3,

    Nika.02.SATRip.[www.Riper.AM].avi (611,57 Mb)

    Nika.03.SATRip.[www.Riper.AM].avi (586,28 Mb)

    Nika.04.SATRip.[www.Riper.AM].avi (781,21 Mb)

    Ника сериал скачать торрент

    Скачать сериал Ника (1-4 серии из 4) (2015) SATRip через торрент

    Ника сериал скачать торрент

    Ника сериал скачать торрент

    Ника сериал скачать торрент

    Ника сериал скачать торрент

    Ника сериал скачать торрент

    Ника сериал скачать торрент

    Ника сериал скачать торрент

    Посетители, находящиеся в группе Гости, не могут оставлять комментарии к данной публикации.

    Ника (2015) Все серии сериал фильм скачать через торрент в хорошем качестве hd бесплатно без регистрации

    Ника (2015) Все серии сериал скачать торрент

    Ника сериал скачать торрент

    Ника сериал скачать торрент

    Информация о фильме

    Оригинальное название: Ника

    Год выпуска: 2015

    Режиссер: Валентин Донсков

    В ролях: Анна Миклош, Сергей Чирков, Натали Старынкевич, Илья Коврижных, Михаил Владимиров, Сергей Генкин, Юрий Ваксман, Михаил Левченко, Сергей Марухин

    Нику подставляет муж, и она попадает в тюрьму. На зоне она знакомится с "медвежатницей" Дженни, и вскоре они становятся подругами. Через два года, выйдя из тюрьмы, Дженни решает помочь Нике вернуть дом и наказать мужа. Вскоре к девушкам присоединяется брат Дженни – аферист Ден. Так трое молодых людей становятся современными Робин Гудами и спасают умирающую девочку, наказывают врача-взяточника, находят управу на бизнесмена-бандита, защищают обманутых стариков.

    Скачать фильм Ника (2015) SATRip через торрент

    Скачать фильм Ника (1-4 серии из 4) (Валентин Донсков) / [2015, мелодрама, SATRip] - торрент

    Скачать фильм бесплатно через торрент. Фильм доступен на нашем торрент-трекере бесплатно, без регистрации и смс.

    Ника сериал скачать торрентФормат: SATRip, AVI, XviD, MP3

    Режиссер: Валентин Донсков

    Нику подставляет муж, и она попадает в тюрьму. На зоне она знакомится с "медвежатницей" Дженни, и вскоре они становятся подругами. Через два года, выйдя из тюрьмы, Дженни решает помочь Нике вернуть дом и наказать мужа. Вскоре к девушкам присоединяется брат Дженни – аферист Ден. Так трое молодых людей становятся современными Робин Гудами и спасают умирающую девочку, наказывают врача-взяточника, находят управу на бизнесмена-бандита, защищают обманутых стариков.

    1830 kbps avg, 0.254 bit/pixel

    Аудио: 48 kHz, MPEG Layer 3, 2 ch,

    Полное имя : C:\Users\Admin\Downloads\Nika.01.SATRip.avi

    Формат/Информация : Audio Video Interleave

    Размер файла : 629 Мбайт

    Продолжительность : 44 м.

    Общий поток : 1968 Кбит/сек

    Программа кодирования : VirtualDubMod 1.5.10.3 | www.virtualdub-fr.org || (build 2550/release)

    Библиотека кодирования : VirtualDubMod build 2550/release

    Формат : MPEG-4 Visual

    Профиль формата : Advanced Simple@L5

    Параметр BVOP формата : 2

    Параметр QPel формата : Нет

    Параметр GMC формата : Без точки перехода

    Параметр матрицы формата : Default (H.263)

    Идентификатор кодека : XVID

    Идентификатор кодека/Подсказка : XviD

    Продолжительность : 44 м.

    Битрейт : 1830 Кбит/сек

    Ширина : 720 пикселей

    Высота : 400 пикселей

    Соотношение сторон : 16:9

    Частота кадров : 25,000 кадров/сек

    Цветовое пространство : YUV

    Субдискретизация насыщенности : 4:2:0

    Битовая глубина : 8 бит

    Тип развёртки : Прогрессивная

    Метод сжатия : С потерями

    Размер потока : 585 Мбайт (93%)

    Библиотека кодирования : XviD 1.2.1 (UTC 2008-12-04)

    Формат : MPEG Audio

    Версия формата : Version 1

    Профиль формата : Layer 3

    Режим : Joint stereo

    Расширение режима : MS Stereo

    Идентификатор кодека : 55

    Идентификатор кодека/Подсказка : MP3

    Продолжительность : 44 м.

    Вид битрейта : Постоянный

    Битрейт : 128 Кбит/сек

    Каналы : 2 канала

    Частота : 48,0 КГц

    Метод сжатия : С потерями

    Размер потока : 40,9 Мбайт (7%)

    Выравнивание : Соединение по промежуткам

    Продолжительность промежутка : 40 мс. (1,00 видеокадр)

    Время предзагрузки промежутка : 504 мс.

    Библиотека кодирования : LAME3.99r

    Настройки программы : -m j -V 4 -q 9 -lowpass 17 -b 128

    Ника сериал скачать торрент

    Ника сериал скачать торрентНика сериал скачать торрентНика сериал скачать торрент

    Информация о торренте:

    Скачан: 15846 раз

    Статус: Проверен Зарегистрирован на трекере: 2015-03-22 16:51

    Ника (2015) - Скачать фильмы через торрент бесплатно в хорошем качестве

    Ника (2015) скачать торрент

    Ника сериал скачать торрент

    Произведено: Россия / Централ Партнершип

    Режиссер постановщик: Валентин Донсков

    В главных ролях: Анна Миклош, Сергей Чирков, Натали Старынкевич, Илья Коврижных, Михаил Владимиров, Сергей Генкин, Юрий Ваксман, Михаил Левченко, Сергей Марухин

    Продолжительность: 00:45:00 / серия

    Перевод: Оригинал (русский)

    О сериале: Нику подставляет муж, и она попадает в тюрьму. На зоне она знакомится с «медвежатницей» Дженни, и вскоре они становятся подругами. Через два года, выйдя из тюрьмы, Дженни решает помочь Нике вернуть дом и наказать мужа. Вскоре к девушкам присоединяется брат Дженни — аферист Ден. Так трое молодых людей становятся современными Робин Гудами и спасают умирающую девочку, наказывают врача-взяточника, находят управу на бизнесмена-бандита, защищают обманутых стариков.