Софт-Архив

Скачать Осп Студия Торрент

Рейтинг: 4.1/5.0 (128 проголосовавших)

Категория: Торрент-файлы

Описание

Скачать прикол О

Скачать прикол О.С.П. Студия. Лучшие / О.С.П. Студия. Лучшие (О.С.П. Студия.) [2004, Юмор, пародия] - торрент

Скачать через торрент прикол вы можете, нажав на синюю кнопку. Прикол доступен на нашем торрент-трекере бесплатно, без регистрации и смс.

Скачать осп студия торрентПеревод: Не требуется, cубтитры: отсутствуют

Формат: DVDRip, AVI, XviD, AC3

Режиссер: О.С.П. Студия.

Продолжительность: 3 x

1623 kbps avg, 0.14 bit/pixel

Аудио: 48 kHz, AC3 Dolby Digital, 2/0 (L,R) ch,

01. Женские истерики с Татьяной Лазаревой

02. Легенды папиков (АВВА)

03. Перепись населения (Сериал)

04. Александр Дурдом

05. Без галстука с Ириной Задвумязайцевой

06. Посудомойка (мощное ток-шоу)

07. ДОМИНО (ведущие: Елена Чунга-Чанга и Елена Кощеева)

08. Энциклопедия телевидения (сериал)

09. Супер-пупер (первый российский комикс)

10. Неврастительная жизнь (клип "Сало" )

11. Ботаник с Павлом Блинцевым

12. Надысь с Леонидом Парфюмовым

13. Легенды папиков (Ласковый май)

14. Без дырокола с Борисом и Эльдаром

15. Ночной пролет с Андреем Массивновым

16. Окна (запредельное ток-шоу)

01. Легенды Попиков (Чингисхан)

02. Премьер-Министр Касьянов (Восточная)

03. Николай Безносков (Че-то как-то)

04. Шура (Трави бобров)

05. Легенды Попиков (Queen)

06. Михаил Звезданутый (Отелло)

07. Легенды Папиков (The Beatles)

08. Чефир вдвоем (Огромная лажа)

09. Мумий тролль (Торговали мы)

10. Стинг (Хохол среди москалей)

11. Олег Митяев (Пиво - это маленькая ж. )

12. Он Его (Непростые движения)

13. Отпетый Леонид и группа Мошенников (На границе)

14. Татьяна Лазарева (Любофф)

15. Бредущий из гостей (Кто я)

16. Козлятушки ЛТД (Снегири)

17. Легенды Папиков (Арабески)

02. Откровенный разговор

03. Любим, надеемся… а вдруг

04. Сказка (Россия-Тунис)

05. Призовая тройка

06. Академия спортивной травмы

07. Песня о футболе + Безалкогольное пиво

08. Комментаторская будка

10. На футболе с Виктором Гусем

12. Доброе утро, дуршлаг со шлангом

13. Спортсменка, красавица, комсомолка

14. Скрытая камера

15. Интервью под кольцом + песня

16. Уроки футбола

17. Дело Вьетнамчика

18. Эхо Олимпиады

19. Уроки мужества

21. Счастья вам, женщины

Скачать осп студия торрент

Скачать осп студия торрент

Скачать осп студия торрент

Скачать осп студия торрент

Скачать осп студия торрент

Скачать осп студия торрент

Скачать осп студия торрент

Скачать осп студия торрент

Скачать осп студия торрент

Скачать осп студия торрент

Информация о торренте:

Скачан: 6216 раз

Статус: Проверен Зарегистрирован на трекере: 2008-09-16 16:41

скачать осп студия торрент:

  • скачать
  • скачать
  • Другие статьи

    Скачать торрент IV части более 100 пародийных песен ОСП студии

    MegaTorrents - Безрейтинговый Bittorent Трекер

    Скачать осп студия торрент

    IV части более 100 пародийных песен ОСП студии / MP3/320 Kbps/CBR

    Название: IV части более 100 пародийных песен ОСП студии / MP3/320 Kbps/CBR

    Название ОСП-студии имеет множество расшифровок: «Очень Смешная Передача», «Отдел Сумасшедших Проектов», «Опять Стакан Полный» и др. Правильно читается так: о-эс-пэ-студия.

    Скачать осп студия торрент

    Скачать осп студия торрент

    Интересное Информация Список комментариев

    Всего 1 на 1 страницах по 10 на каждой странице.

    Предупреждение! Информация, расположенная на данном сервере, предназначена исключительно для частного использования в образовательных целях и не может быть загружена/перенесена на другой компьютер. Ни владелец сайта, ни хостинг-провайдер, ни любые другие физические или юридические лица не могут нести никакой отвественности за любое использование материалов данного сайта.

    Входя на сайт, Вы, как пользователь, тем самым подтверждаете полное и безоговорочное согласие со всеми условиями использования. Авторы проекта относятся особо негативно к нелегальному использованию информации, полученной на сайте.

    No files you see here are hosted on the server. Links available are provided by site users and administation is not responsible for them. It is strictly prohibited to upload any copyrighted material without explicit permission from copyright holders. If you find that some content is abusing you feel free to contact administation.

    Музыкальный Сборник ОСП-студия (2014) MP3 скачать торрент

    Сборник ОСП-студия (2014) () скачать торрент

    Формат | Качество: MP3 | 128 Kbps

    Количество треков: 77

    Время звучания: 04:06:36

    Размер архива: 226.8 MB (cкачиваний: 195)

    04 - Она была актрисою

    05 - Старый мой пень

    07 - То ли девочка, то ли.

    08 - Я ненавижу футбол

    09 - В доме нет мужика

    13 - Ельцин - О, Е!

    14 - Я вчера купила коня

    15 - Лежать на диване

    17 - Мальчик хочет в табло

    18 - Я хочу любви

    19 - Божий коровник

    20 - Однажды в космосе

    23 - Белые Жигули

    26 - Цыган Валера

    27 - Розовые трусики

    29 - Налетай, девки

    30 - Медицинский романс

    31 - Любите девочки корявых

    32 - Антиполицай — осень

    33 - Деловая Москва

    34 - Три поросенка

    35 - Клинтон обижает милых дам

    37 - Потому что нельзя

    38 - И вновь продолжается бой

    40 - Школьный реп

    44 - У меня есть подруга

    45 - Гости из булочной

    46 - Академическая гребля

    47 - Мы в такие шагали дали

    48 - Превращаюсь постепенно в дятла

    50 - И на метро 2000

    51 - Партизан любви

    53 - Есть у меня рука

    54 - День Святого Валентина

    55 - Дорогая моя

    56 - Золотистый пух

    61 - Не стоит напрягаться

    64 - Кинь на пейджер

    65 - В Петербурге сегодня дожди

    67 - С легким паром

    68 - Ната и Пушкин

    69 - Все равно мы пить не бросим

    71 - Цейлонское танго

    72 - У Шуры шары

    73 - Аральный шмодекс

    75 - Будет все зашибись

    Уважемый меломан! Если у Вас возникли вопросы, трудности, Вы впервые используете торрент и не знаете, как скачать Сборник ОСП-студия (2014), то рекомендуем Вам ознакомиться с простой и наглядной инструкцией о том - как скачивать через торрент на Андроид.

    Если торрент-файл недоступен, или уже "устарел" (нет раздающих), или у Вас есть вопросы/предложения по содержанию и оформлению представленного на этой странице материала, то просто заполните эту форму

    Скачать осп студия торрент

    Скачать осп студия торрент

    ОСП-Студия. Валдис Пельш › Торрент Видео » Юмор, SATRip, Телешоу
    • firebitman
    • 18.12.2012 16:04:46
    • 1031

    Скачать осп студия торрент

    Год выпуска: 2002

    Жанр: Юмористическое шоу

    В ролях: Валдис Пельш, Сергей Белоголовцев, Татьяна Лазарева, Михаил Шац

    Видео: DivX, 764 Кбит/с, 640x480

    Аудио: MP3, 2 ch, 160 Кбит/с

    Скачать осп студия торрент Скачать осп студия торрент Скачать осп студия торрент

    • Раздает: 0
    • Качает: 0
    • Скачали: 0
    • Размер: 285.23 Mb
    • Файлов: 1
    • Сидеры были: 21.02.2015 14:49

    Скачать осп студия торрент

    Скачать осп студия торрент

    Скачать осп студия торрент

    Добавление комментария:

    - Поисковых роботов: 2

    Скачать осп студия торрент

    Посещая данный ресурс вы автоматически соглашаетесь с Пользовательским соглашением

    Cвязь с администрацией: admin(doggy)firebit.org

    Уважаемый пользователь нашего сайта!

    Вы используете плагин AceStream/TorrentStream. В последнее время стало известно, что он распространяет вредоносное ПО. Рекомендуем удалить данный плагин.

    ОСП-студия (2003) TVRip 6 серий

    ОСП-студия (2003) TVRip [6 серий]

    Скачать осп студия торрент

    Год выпуска: 2003

    В гостях у юмористической передачи "ОСП-студия" Юрий Грымов , Би2, Лена Перова, Максим Леонидов, Александр Маршал, Валерий Сюткин, Андрей Макаревич, Юрий Николаев, Андрей Малахов.

    Размер кадра: 640x480; 704x528

    Качество видео: TVRip

    Битрейт аудио: 128 kb/s, 44Khz, 1ch

    Полное имя : D:\Upload\OSP\ОСП - Студия с Александром Маршалом.avi

    Формат/Информация : Audio Video Interleave

    Размер файла : 335 Мбайт

    Продолжительность : 41 м.

    Режим общего битрейта : Переменный

    Общий поток : 1119 Кбит/сек

    Программа кодирования : Nandub v1.0rc2

    Библиотека кодирования : Nandub build 1852/release

    Формат : MPEG-4 Visual

    Параметр BVOP формата : 1

    Параметр QPel формата : Нет

    Параметр GMC формата : Без точки перехода

    Параметр матрицы формата : Default (H.263)

    Режим смешивания : Сжатый битовый поток

    Идентификатор кодека : DX50

    Идентификатор кодека/Подсказка : DivX 5

    Продолжительность : 41 м.

    Битрейт : 979 Кбит/сек

    Ширина : 640 пикселей

    Высота : 480 пикселей

    Соотношение сторон : 4:3

    Частота кадров : 25,000 кадров/сек

    Цветовое пространство : YUV

    Субдискретизация насыщенности : 4:2:0

    Битовая глубина : 8 бит

    Тип развёртки : Прогрессивная

    Метод сжатия : С потерями

    Размер потока : 293 Мбайт (87%)

    Библиотека кодирования : DivX 5.2.1 Alpha (UTC 2004-09-08)

    Формат : MPEG Audio

    Версия формата : Version 1

    Профиль формата : Layer 3

    Идентификатор кодека : 55

    Идентификатор кодека/Подсказка : MP3

    Продолжительность : 41 м.

    Вид битрейта : Переменный

    Битрейт : 128 Кбит/сек

    Каналы : 1 канал

    Частота : 44,1 КГц

    Метод сжатия : С потерями

    Размер потока : 38,4 Мбайт (11%)

    Выравнивание : Соединение по промежуткам

    Продолжительность промежутка : 26 мс. (0,65 видеокадр)

    Время предзагрузки промежутка : 495 мс.

    Полное имя : D:\Upload\OSP\ОСП - Студия с Андреем Макаревичем (передача 1).avi

    Формат/Информация : Audio Video Interleave

    Размер файла : 369 Мбайт

    Продолжительность : 41 м.

    Общий поток : 1232 Кбит/сек

    Библиотека кодирования : VirtualDub build 18160/release

    Формат : MPEG-4 Visual

    Параметр BVOP формата : 1

    Параметр QPel формата : Нет

    Параметр GMC формата : Без точки перехода

    Параметр матрицы формата : Default (H.263)

    Режим смешивания : Сжатый битовый поток

    Идентификатор кодека : DX50

    Идентификатор кодека/Подсказка : DivX 5

    Продолжительность : 41 м.

    Битрейт : 1094 Кбит/сек

    Ширина : 704 пикселя

    Высота : 528 пикселей

    Соотношение сторон : 4:3

    Частота кадров : 25,000 кадров/сек

    Цветовое пространство : YUV

    Субдискретизация насыщенности : 4:2:0

    Битовая глубина : 8 бит

    Тип развёртки : Прогрессивная

    Метод сжатия : С потерями

    Размер потока : 327 Мбайт (89%)

    Библиотека кодирования : DivX 5.0.5 Beta(Tahanea) (UTC 2003-01)

    Формат : MPEG Audio

    Версия формата : Version 1

    Профиль формата : Layer 3

    Идентификатор кодека : 55

    Идентификатор кодека/Подсказка : MP3

    Продолжительность : 41 м.

    Вид битрейта : Постоянный

    Битрейт : 128 Кбит/сек

    Каналы : 1 канал

    Частота : 44,1 КГц

    Метод сжатия : С потерями

    Задержка видео : 20 мс.

    Размер потока : 38,3 Мбайт (10%)

    Выравнивание : Разделение по промежуткам

    Продолжительность промежутка : 40 мс. (1,00 видеокадр)

    Время предзагрузки промежутка : 500 мс.

    Полное имя : D:\Upload\OSP\ОСП - Студия с Андреем Макаревичем (передача 2).avi

    Формат/Информация : Audio Video Interleave

    Размер файла : 314 Мбайт

    Продолжительность : 33 м.

    Общий поток : 1318 Кбит/сек

    Библиотека кодирования : VirtualDub build 18160/release

    Формат : MPEG-4 Visual

    Параметр BVOP формата : 1

    Параметр QPel формата : Нет

    Параметр GMC формата : Без точки перехода

    Параметр матрицы формата : Default (H.263)

    Режим смешивания : Сжатый битовый поток

    Идентификатор кодека : DX50

    Идентификатор кодека/Подсказка : DivX 5

    Продолжительность : 33 м.

    Битрейт : 1180 Кбит/сек

    Ширина : 704 пикселя

    Высота : 528 пикселей

    Соотношение сторон : 4:3

    Частота кадров : 25,000 кадров/сек

    Цветовое пространство : YUV

    Субдискретизация насыщенности : 4:2:0

    Битовая глубина : 8 бит

    Тип развёртки : Прогрессивная

    Метод сжатия : С потерями

    Размер потока : 281 Мбайт (90%)

    Библиотека кодирования : DivX 5.0.5 Beta(Tahanea) (UTC 2003-01)

    Формат : MPEG Audio

    Версия формата : Version 1

    Профиль формата : Layer 3

    Идентификатор кодека : 55

    Идентификатор кодека/Подсказка : MP3

    Продолжительность : 33 м.

    Вид битрейта : Постоянный

    Битрейт : 128 Кбит/сек

    Каналы : 1 канал

    Частота : 44,1 КГц

    Метод сжатия : С потерями

    Задержка видео : 7 мс.

    Размер потока : 30,4 Мбайт (10%)

    Выравнивание : Разделение по промежуткам

    Продолжительность промежутка : 40 мс. (1,00 видеокадр)

    Время предзагрузки промежутка : 500 мс.

    Полное имя : D:\Upload\OSP\ОСП - Студия с Андреем Малаховым.avi

    Формат/Информация : Audio Video Interleave

    Размер файла : 335 Мбайт

    Продолжительность : 42 м.

    Общий поток : 1105 Кбит/сек

    Формат : MPEG-4 Visual

    Параметр BVOP формата : 1

    Параметр QPel формата : Нет

    Параметр GMC формата : Без точки перехода

    Параметр матрицы формата : Default (H.263)

    Режим смешивания : Сжатый битовый поток

    Идентификатор кодека : DX50

    Идентификатор кодека/Подсказка : DivX 5

    Продолжительность : 42 м.

    Битрейт : 1000 Кбит/сек

    Ширина : 640 пикселей

    Высота : 480 пикселей

    Соотношение сторон : 4:3

    Частота кадров : 25,000 кадров/сек

    Цветовое пространство : YUV

    Субдискретизация насыщенности : 4:2:0

    Битовая глубина : 8 бит

    Тип развёртки : Прогрессивная

    Метод сжатия : С потерями

    Размер потока : 303 Мбайт (90%)

    Библиотека кодирования : DivX 5.2.1 Alpha (UTC 2004-09-08)

    Формат : MPEG Audio

    Версия формата : Version 1

    Профиль формата : Layer 3

    Идентификатор кодека : 55

    Идентификатор кодека/Подсказка : MP3

    Продолжительность : 42 м.

    Вид битрейта : Постоянный

    Битрейт : 96,0 Кбит/сек

    Каналы : 1 канал

    Частота : 44,1 КГц

    Метод сжатия : С потерями

    Размер потока : 29,1 Мбайт (9%)

    Выравнивание : Разделение по промежуткам

    Продолжительность промежутка : 40 мс. (1,00 видеокадр)

    Время предзагрузки промежутка : 500 мс.

    Полное имя : D:\Upload\OSP\ОСП - Студия с БИ 2.avi

    Формат/Информация : Audio Video Interleave

    Размер файла : 344 Мбайт

    Продолжительность : 42 м.

    Общий поток : 1129 Кбит/сек

    Формат : MPEG-4 Visual

    Параметр BVOP формата : 1

    Параметр QPel формата : Нет

    Параметр GMC формата : Без точки перехода

    Параметр матрицы формата : Default (H.263)

    Режим смешивания : Сжатый битовый поток

    Идентификатор кодека : DX50

    Идентификатор кодека/Подсказка : DivX 5

    Продолжительность : 42 м.

    Битрейт : 1023 Кбит/сек

    Ширина : 640 пикселей

    Высота : 480 пикселей

    Соотношение сторон : 4:3

    Частота кадров : 25,000 кадров/сек

    Цветовое пространство : YUV

    Субдискретизация насыщенности : 4:2:0

    Битовая глубина : 8 бит

    Тип развёртки : Прогрессивная

    Метод сжатия : С потерями

    Размер потока : 312 Мбайт (91%)

    Библиотека кодирования : DivX 5.2.1 Alpha (UTC 2004-09-08)

    Формат : MPEG Audio

    Версия формата : Version 1

    Профиль формата : Layer 3

    Идентификатор кодека : 55

    Идентификатор кодека/Подсказка : MP3

    Продолжительность : 42 м.

    Вид битрейта : Постоянный

    Битрейт : 96,0 Кбит/сек

    Каналы : 1 канал

    Частота : 48,0 КГц

    Метод сжатия : С потерями

    Размер потока : 29,2 Мбайт (9%)

    Выравнивание : Разделение по промежуткам

    Продолжительность промежутка : 40 мс. (1,00 видеокадр)

    Время предзагрузки промежутка : 500 мс.

    Полное имя : D:\Upload\OSP\ОСП - Студия с Валерием Сюткиным.avi

    Формат/Информация : Audio Video Interleave

    Размер файла : 314 Мбайт

    Продолжительность : 42 м.

    Общий поток : 1039 Кбит/сек

    Библиотека кодирования : VirtualDub build 18160/release

    Формат : MPEG-4 Visual

    Параметр BVOP формата : 1

    Параметр QPel формата : Нет

    Параметр GMC формата : Без точки перехода

    Параметр матрицы формата : Default (H.263)

    Режим смешивания : Сжатый битовый поток

    Идентификатор кодека : DX50

    Идентификатор кодека/Подсказка : DivX 5

    Продолжительность : 42 м.

    Битрейт : 902 Кбит/сек

    Ширина : 640 пикселей

    Высота : 480 пикселей

    Соотношение сторон : 4:3

    Частота кадров : 25,000 кадров/сек

    Цветовое пространство : YUV

    Субдискретизация насыщенности : 4:2:0

    Битовая глубина : 8 бит

    Тип развёртки : Прогрессивная

    Метод сжатия : С потерями

    Размер потока : 273 Мбайт (87%)

    Библиотека кодирования : DivX 5.0.5 Beta(Tahanea) (UTC 2003-01)

    Формат : MPEG Audio

    Версия формата : Version 1

    Профиль формата : Layer 3

    Идентификатор кодека : 55

    Идентификатор кодека/Подсказка : MP3

    Продолжительность : 42 м.

    Вид битрейта : Постоянный

    Битрейт : 128 Кбит/сек

    Каналы : 2 канала

    Частота : 44,1 КГц

    Метод сжатия : С потерями

    Задержка видео : 24 мс.

    Размер потока : 38,7 Мбайт (12%)

    Выравнивание : Разделение по промежуткам

    Продолжительность промежутка : 40 мс. (1,00 видеокадр)

    Время предзагрузки промежутка : 500 мс.

    Полное имя : D:\Upload\OSP\ОСП - Студия с Леной Перовой.avi

    Формат/Информация : Audio Video Interleave

    Размер файла : 305 Мбайт

    Продолжительность : 42 м.

    Общий поток : 1003 Кбит/сек

    Библиотека кодирования : VirtualDub build 18160/release

    Формат : MPEG-4 Visual

    Параметр BVOP формата : 1

    Параметр QPel формата : Нет

    Параметр GMC формата : Без точки перехода

    Параметр матрицы формата : Default (H.263)

    Режим смешивания : Сжатый битовый поток

    Идентификатор кодека : DX50

    Идентификатор кодека/Подсказка : DivX 5

    Продолжительность : 42 м.

    Битрейт : 866 Кбит/сек

    Ширина : 640 пикселей

    Высота : 480 пикселей

    Соотношение сторон : 4:3

    Частота кадров : 25,000 кадров/сек

    Цветовое пространство : YUV

    Субдискретизация насыщенности : 4:2:0

    Битовая глубина : 8 бит

    Тип развёртки : Прогрессивная

    Метод сжатия : С потерями

    Размер потока : 263 Мбайт (86%)

    Библиотека кодирования : DivX 5.0.5 Beta(Tahanea) (UTC 2003-01)

    Формат : MPEG Audio

    Версия формата : Version 1

    Профиль формата : Layer 3

    Идентификатор кодека : 55

    Идентификатор кодека/Подсказка : MP3

    Продолжительность : 42 м.

    Вид битрейта : Постоянный

    Битрейт : 128 Кбит/сек

    Каналы : 1 канал

    Частота : 44,1 КГц

    Метод сжатия : С потерями

    Размер потока : 38,9 Мбайт (13%)

    Выравнивание : Разделение по промежуткам

    Продолжительность промежутка : 40 мс. (1,00 видеокадр)

    Время предзагрузки промежутка : 500 мс.

    Полное имя : D:\Upload\OSP\ОСП - Студия с Максимом Леонидовым.avi

    Формат/Информация : Audio Video Interleave

    Размер файла : 306 Мбайт

    Продолжительность : 41 м.

    Общий поток : 1019 Кбит/сек

    Программа кодирования : Nandub v1.0rc2

    Библиотека кодирования : Nandub build 1852/release

    Формат : MPEG-4 Visual

    Параметр BVOP формата : 1

    Параметр QPel формата : Нет

    Параметр GMC формата : Без точки перехода

    Параметр матрицы формата : Default (H.263)

    Режим смешивания : Сжатый битовый поток

    Идентификатор кодека : DX50

    Идентификатор кодека/Подсказка : DivX 5

    Продолжительность : 41 м.

    Битрейт : 881 Кбит/сек

    Ширина : 640 пикселей

    Высота : 480 пикселей

    Соотношение сторон : 4:3

    Частота кадров : 25,000 кадров/сек

    Цветовое пространство : YUV

    Субдискретизация насыщенности : 4:2:0

    Битовая глубина : 8 бит

    Тип развёртки : Прогрессивная

    Метод сжатия : С потерями

    Размер потока : 265 Мбайт (86%)

    Библиотека кодирования : DivX 5.0.5 Beta(Tahanea) (UTC 2003-01)

    Формат : MPEG Audio

    Версия формата : Version 1

    Профиль формата : Layer 3

    Идентификатор кодека : 55

    Идентификатор кодека/Подсказка : MP3

    Продолжительность : 41 м.

    Вид битрейта : Постоянный

    Битрейт : 128 Кбит/сек

    Каналы : 1 канал

    Частота : 44,1 КГц

    Метод сжатия : С потерями

    Задержка видео : 20 мс.

    Размер потока : 38,4 Мбайт (13%)

    Выравнивание : Разделение по промежуткам

    Продолжительность промежутка : 40 мс. (1,00 видеокадр)

    Время предзагрузки промежутка : 500 мс.

    Полное имя : D:\Upload\OSP\ОСП - Студия с Юрием Грымовым.avi

    Формат/Информация : Audio Video Interleave

    Размер файла : 337 Мбайт

    Продолжительность : 41 м.

    Общий поток : 1131 Кбит/сек

    Формат : MPEG-4 Visual

    Параметр BVOP формата : 1

    Параметр QPel формата : Нет

    Параметр GMC формата : Без точки перехода

    Параметр матрицы формата : Default (H.263)

    Режим смешивания : Сжатый битовый поток

    Идентификатор кодека : DX50

    Идентификатор кодека/Подсказка : DivX 5

    Продолжительность : 41 м.

    Битрейт : 1025 Кбит/сек

    Ширина : 640 пикселей

    Высота : 480 пикселей

    Соотношение сторон : 4:3

    Частота кадров : 25,019 кадров/сек

    Цветовое пространство : YUV

    Субдискретизация насыщенности : 4:2:0

    Битовая глубина : 8 бит

    Тип развёртки : Прогрессивная

    Метод сжатия : С потерями

    Размер потока : 306 Мбайт (91%)

    Библиотека кодирования : DivX 5.2.1 Alpha (UTC 2004-09-08)

    Формат : MPEG Audio

    Версия формата : Version 1

    Профиль формата : Layer 3

    Идентификатор кодека : 55

    Идентификатор кодека/Подсказка : MP3

    Продолжительность : 41 м.

    Вид битрейта : Постоянный

    Битрейт : 96,0 Кбит/сек

    Каналы : 1 канал

    Частота : 48,0 КГц

    Метод сжатия : С потерями

    Размер потока : 28,7 Мбайт (8%)

    Выравнивание : Разделение по промежуткам

    Продолжительность промежутка : 40 мс. (1,00 видеокадр)

    Время предзагрузки промежутка : 500 мс.

    Библиотека кодирования : LAME3.92

    Полное имя : D:\Upload\OSP\ОСП - Студия с Юрием Николаевым.avi

    Формат/Информация : Audio Video Interleave

    Размер файла : 310 Мбайт

    Продолжительность : 42 м.

    Общий поток : 1018 Кбит/сек

    Библиотека кодирования : VirtualDub build 18160/release

    Формат : MPEG-4 Visual

    Параметр BVOP формата : 1

    Параметр QPel формата : Нет

    Параметр GMC формата : Без точки перехода

    Параметр матрицы формата : Default (H.263)

    Режим смешивания : Сжатый битовый поток

    Идентификатор кодека : DX50

    Идентификатор кодека/Подсказка : DivX 5

    Продолжительность : 42 м.

    Битрейт : 880 Кбит/сек

    Ширина : 640 пикселей

    Высота : 480 пикселей

    Соотношение сторон : 4:3

    Частота кадров : 25,000 кадров/сек

    Цветовое пространство : YUV

    Субдискретизация насыщенности : 4:2:0

    Битовая глубина : 8 бит

    Тип развёртки : Прогрессивная

    Метод сжатия : С потерями

    Размер потока : 268 Мбайт (86%)

    Библиотека кодирования : DivX 5.0.5 Beta(Tahanea) (UTC 2003-01)

    Формат : MPEG Audio

    Версия формата : Version 1

    Профиль формата : Layer 3

    Идентификатор кодека : 55

    Идентификатор кодека/Подсказка : MP3

    Продолжительность : 42 м.

    Вид битрейта : Постоянный

    Битрейт : 128 Кбит/сек

    Каналы : 1 канал

    Частота : 44,1 КГц

    Метод сжатия : С потерями

    Задержка видео : 5 мс.

    Размер потока : 39,0 Мбайт (13%)

    Выравнивание : Разделение по промежуткам

    Продолжительность промежутка : 40 мс. (1,00 видеокадр)