Софт-Архив

скачать пин код через торрент

Рейтинг: 4.2/5.0 (841 проголосовавших)

Категория: Торрент-файлы

Описание

Смешарики: Пин-код сезон 1, 2 (2012) смотреть онлайн или скачать мультфильм через торрент

Смешарики: Пин-код (2012)

Дата выхода в России (или в Мире): 01.01.2012

Дата выхода на DVD: 20.08.2012

Смешарики: Пин-код — это спин-офф мультсериала Смешарики, целью которого является формирование интереса к изобретательству, техническому творчеству и науке у детей от 4 до 14 лет.

  • Скачать пин код через торрент
  • Скачать пин код через торрент
  • Скачать пин код через торрент
  • Скачать пин код через торрент
  • Скачать пин код через торрент

Название фильма Название антологии

04 Май 2017 21:56

Для просмотра скриншотов нажмите на описание торрента!

скачать пин код через торрент:

  • скачать
  • скачать
  • Другие статьи

    Смешарики: Пин-код 2 Сезон (2016) Скачать торрент

    Смешарики: Пин-код (2012-2016) 1-2 Сезон Скачать торрент

    Название: Смешарики: Пин-код

    Сценарий: Дмитрий Яковенко, Алексей Горбунов

    Продюсер: Илья Попов

    Композитор: Сергей Васильев, Марина Ланда

    Качество: DVDRip / HDTVRip

    Рейтинг КиноПоиска: 7.175 (144)

    Смешарики продолжают нас радовать своей любознательностью и изобретательностью. Сериал Пин-Код от смешариков представляет собой информативный познавательный мультфильм. Всем хорошо известные смешарики рассказывают интересные и весёлые истории, что помогает детям лучше усваивать общеразвивающую информацию. Увлекательные приключения с нашими круглыми друзьями откроют много нового! Рекомендовано для просмотра детям от четырёх до четырнадцати лет.

    Скачать торрент: Смешарики: Пин-код (2012-2014) 1 Сезон

    Видео: 688x400 (1.720:1) до 720x400 (16:9), 25.000 fps, XViD

    2000 kbps avg, 0.290 bit/pixel

    Аудио: 48 kHz, АС3 2 ch, 192 kbps, русский

    Перевод: Русский (оригинал)

    Продолжительность серии: 00:13:00

    Скачать торрент: Смешарики: Пин-код (2015) 2 Сезон

    2000 Кбит/с, 704x400

    Аудио: MP3, 2 ch, 128 Кбит/с

    Перевод: Русский (оригинал)

    Продолжительность серии: 00:13:00

    Размер серии: 200 MB

    Качество: HDTVRip 1080p

    5661 Кбит/с, 1920x1080

    Аудио: Русский (AAC, 2 ch, 128 Кбит/с; AC3, 2 ch, 192 Кбит/с)

    Скачать мультфильм Смешарики: Пин-код (2012) DVDRip через торрент

    Скачать мультфильм Смешарики: Пин-код (Сезоны: 1-2, Серии: 1 - 84 из 84) (Алексей Горбунов. ) / [2012 - 2016, Россия, мультфильм, детский, DVDRip-AVC, WEB-DLRip-AVC] - торрент

    Нажмите на синюю кнопку ниже, чтобы скачать мультфильм бесплатно через торрент. Мультфильм доступен на нашем торрент-трекере бесплатно, без регистрации и смс.

    Скачать пин код через торрент

    Формат: DVDRip-AVC/WEB-DLRip-AVC, MKV, MPEG4 AVC, AC3

    Режиссеры: Алексей Горбунов, Светлана Мардаголимова, Александра Аверьянова, Анна Борисова, Наталья Мирзоян, Роман Соколов, Константин Бирюков, Джангир Сулейманов, Марина Мошкова, Катерина Савчук, Екатерина Салабай, Екатерина Шутова

    Продолжительность серий: 84 x

    Годы выпуска: 2012-2016

    Скачать пин код через торрент

    Качество : DVDRip-AVC, WEB-DLRip-AVC

    Формат видео : AVI

    2006 kbps avg, 0.202 - 0.194 bit/pixel/pixel

    Аудио: 48 kHz, AC3 Dolby Digital, 2/0 (L,R) ch,

    02. Принцесса в поиске

    06. Отель «У весёлого альпиниста»

    07. Ураган на спор

    08. Силуэт на снегу

    09. Жажда скорости

    10. Они могут обойтись и без нас!

    12. Очень большая штука

    13. Горшочек, не вари

    14. Энцелад: Вода и жизнь

    16. Параллельный мир

    18. Переломный момент

    19. Сверхпроводимость и капелька любви

    20. Солнечный бриз

    21. Мыльная опера на все времена

    22. У медведя на уме

    24. Диета для Вселенной

    26. Второе солнце

    27. Уши для Ушарика

    28. Малышка на миллион

    29. Светосила искусства

    30. Прививка от Кроша. Первая серия

    31. Прививка от Кроша. Вторая серия

    32. Сказка для Биби

    33. То, что нельзя объяснить

    34. Бортовой дневник

    36. Таймер на тысячу лет

    37. Домино и бабочки

    39. В наилучшем виде

    46. Бортовой дневник. Часть 2

    47. Стражи порядка

    48. Яркий след в истории

    50. Исправительное питание

    52. Секрет совершенства

    02. Двигатель прогресса

    03. Лучший из миров

    04. Космические жмурки

    05. Тайна сгоревшей планеты

    06. Вальс Кабанюши

    08. Мой милый ёжик

    09. День Биби (1 серия)

    11. Танцы с пчёлами

    14. Танец дружбы

    15. Нулевая гипотеза

    16. День Биби (2 серия)

    17. За секунду до.

    18. Вечная жизнь

    20. IQ (Коэффициент интеллекта)

    21. Золотое сечение

    22. Пресный подвиг

    23. Вселенная под присмотром

    24. Без страха и упрёка

    25. Попался, шараноид!

    26. Бортовой дневник. Часть 3

    27. Десять секунд

    28. Да будет свет!

    30. Лучшая валентинка во вселенной

    Внимание! Раздача ведётся путём добавления новых серий; при каждом добавлении создётся новый торрент. Чтобы начать докачку новой серии, пользователям необходимо сделать следующее:

    (1) остановить скачивание,

    (2) удалить старый торрент у себя из клиента (старые серии удалять не надо),

    (3) скачать новый торрент и запустить его у себя в клиенте вместо старого, при этом указать клиенту путь в старую папку куда и должно происходить скачивание новых серий.

    Format version : Version 4 / Version 2

    File size : 204 MiB

    Duration : 13mn 0s

    Overall bit rate : 2 198 Kbps

    Encoded date : UTC 2013-09-18 22:06:05

    Writing application : mkvmerge v6.1.0 ('Old Devil') built on Mar 2 2013 14:32:37

    Writing library : libebml v1.3.0 + libmatroska v1.4.0

    Format/Info : Advanced Video Codec

    Format profile : High@L4.1

    Format settings, CABAC : Yes

    Format settings, ReFrames : 11 frames

    Codec ID : V_MPEG4/ISO/AVC

    Duration : 13mn 0s

    Bit rate : 2 006 Kbps

    Width : 688 pixels

    Height : 576 pixels

    Display aspect ratio : 1.727

    Original display aspect ratio : 1.728

    Frame rate mode : Constant

    Frame rate : 25.000 fps

    Color space : YUV

    Chroma subsampling : 4:2:0

    Bit depth : 8 bits

    Scan type : Progressive

    Stream size : 182 MiB (89%)

    Writing library : x264 core 138 r2356 a1d3d17

    Encoding settings : cabac=1 / ref=11 / deblock=1:-2:-1 / analyse=0x3:0x113 / me=umh / subme=9 / psy=1 / psy_rd=1.00:0.20 / mixed_ref=1 / me_range=32 / chroma_me=1 / trellis=1 / 8x8dct=1 / cqm=0 / deadzone=21,11 / fast_pskip=0 / chroma_qp_offset=-3 / threads=9 / lookahead_threads=1 / sliced_threads=0 / nr=0 / decimate=0 / interlaced=0 / bluray_compat=0 / constrained_intra=0 / bframes=8 / b_pyramid=2 / b_adapt=2 / b_bias=0 / direct=3 / weightb=1 / open_gop=0 / weightp=2 / keyint=250 / keyint_min=25 / scenecut=40 / intra_refresh=0 / rc_lookahead=60 / rc=2pass / mbtree=1 / bitrate=2006 / ratetol=1.0 / qcomp=0.60 / qpmin=0 / qpmax=69 / qpstep=4 / cplxblur=20.0 / qblur=0.5 / ip_ratio=1.40 / aq=1:1.00

    Format/Info : Audio Coding 3

    Mode extension : CM (complete main)

    Format settings, Endianness : Big

    Codec ID : A_AC3

    Duration : 13mn 0s

    Bit rate mode : Constant

    Bit rate : 192 Kbps

    Channel count : 2 channels

    Channel positions : Front: L R

    Sampling rate : 48.0 KHz

    Bit depth : 16 bits

    Compression mode : Lossy

    Stream size : 17.9 MiB (9%)

    Скачать пин код через торрент Скачать пин код через торрент Скачать пин код через торрентСкачать пин код через торрент

    Информация о торренте:

    Скачан: 1587 раз

    Статус: Проверен Зарегистрирован на трекере: 2017-05-04 20:31

    Скачать пин код через торрент

    Смешарики. Пин-код 1-2 (1-48 серий) [1080p HD] скачать торрент Скачать сериал Смешарики. Пин-код 1-2 (1-48 серий) (2015) 1080p HD через торрент

    Скачать пин код через торрент

    02. Двигатель прогресса.mp4 (536.10 MB)

    03. Лучший из миров.mp4 (539.03 MB)

    04. Космические жмурки.mp4 (538.01 MB)

    05. Тайна сгоревшей планеты.mp4 (533.35 MB)

    06. Вальс Кабанюши.mp4 (540.49 MB)

    07. Дружебин.mp4 (542.27 MB)

    08. Мой милый Ёжик.mp4 (536.18 MB)

    09. День Биби. 1 серия.mp4 (531.56 MB)

    10. Контакт.mp4 (529.17 MB)

    11. Танцы с пчелами.mp4 (540.57 MB)

    12. Перемотка.mp4 (532.13 MB)

    13. Телепорташки.mp4 (544.78 MB)

    14. Танец дружбы.mp4 (528.34 MB)

    15. Нулевая гипотеза.mp4 (537.77 MB)

    16. День Биби. 2 серия.mp4 (535.23 MB)

    17. За секунду до. mp4 (533.56 MB)

    18. Вечная жизнь.mp4 (538.56 MB)

    19. Мультиповар.mp4 (540.58 MB)

    20. IQ (Коэффициент интеллекта).mp4 (541.14 MB)

    21. Золотое сечение.mp4 (539.24 MB)

    22. Пресный подвиг.mp4 (535.79 MB)

    23. Вселенная под присмотром.mp4 (535.67 MB)

    24. Попался, шараноид!.mp4 (542.77 MB)

    25. Без страха и упрёка.mp4 (535.09 MB)

    26. Бортовой дневник 3.mp4 (525.02 MB)

    27. Десять секунд.mp4 (533.77 MB)

    28. Да будет свет!.mp4 (544.60 MB)

    29. Карамболь.mp4 (533.98 MB)

    30. Лучшая валентинка во вселенной.mp4 (538.79 MB)

    31. Свет и тьма.mp4 (536.93 MB)

    32. Бессоница.mp4 (539.83 MB)

    11. Пин - песчинка.mp4 (539.92 MB)

    21. Мыльная опера на все времена.mp4 (536.44 MB)

    22. У медведя на уме.mp4 (538.62 MB)

    23. Испытание.mp4 (538.38 MB)

    30. Прививка от Кроша (часть 1).mp4 (538.58 MB)

    31. Прививка от Кроша (часть 2).mp4 (538.40 MB)

    32. Сказка для Биби.mp4 (537.93 MB)

    33. То, что нельзя объяснить.mp4 (538.89 MB)

    Смешарики: ПИН-код (2011-2013) DVDRip (52 серии из 52)

    Смешарики: ПИН-код (2011-2013) DVDRip (52 серии из 52)

    Скачать пин код через торрент

    Поблагодарил(а): 20 раз(а)"> 100%

    Годы выпуска: 2011-2013

    Жанр: приключения, мультфильм, развивающий, детский

    Мультсериал «ПИН-код» представляет собой анимационное путешествие в мир нано-, био-, информационных технологий. Это проект, целью которого является формирование интереса к изобретательству, техническому творчеству и науке у детей от 4 до 14 лет. Сериал ориентирует зрителей на новую идеология изобретательства «Создай и внедри», на умение защитить свой интеллектуальный труд на уровне патента и довести его до людей на уровне новых товаров. Это - приглашение в сообщество детей-изобретателей. Будущие изобретатели должны понимать и решать реальные проблемы окружающих людей. Смешарики подготовят юных Кулибиных и к разработке своего изобретения, и к его повсеместному внедрению.

    Персонажи: Пин, Лосяш, Крош, Ёжик, Бараш, Нюша, Копатыч, Карыч, Совунья

    Мультсериал ПИН-код в Википедии

    Размер кадра: 704x400

    Частота кадров: 25,000 кадр/сек

    Качество видео: DVDRip

    Аудио: MP3, 48.0 КГц, 2 канала (стерео), 128 Кбит/с

    Полное имя : Данные идентичны для всех раздаваемых файлов!

    Формат/Информация : Audio Video Interleave

    Размер файла : 199 Мбайт

    Продолжительность : 13 м.

    Общий поток : 2138 Кбит/с

    Программа кодирования : VirtualDubMod 1.5.10.3 | www.virtualdub-fr.org || (build 2550/release)

    Библиотека кодирования : VirtualDubMod build 2550/release

    Формат : MPEG-4 Visual

    Профиль формата : Advanced Simple@L5

    Параметр BVOP формата : 2

    Параметр QPel формата : Нет

    Параметр GMC формата : Без точки перехода

    Параметр матрицы формата : Default (H.263)

    Режим смешивания : Сжатый битовый поток

    Идентификатор кодека : XVID

    Идентификатор кодека/Подсказка : XviD

    Продолжительность : 13 м

    Битрейт : 2000 Кбит/с

    Ширина : 704 пикс.

    Высота : 400 пикс.

    Соотношение сторон : 16:9

    Частота кадров : 25.000 кадр/с

    Цветовое пространство : YUV

    Подвыборка цветности : 4:2:0

    Битовая глубина : 8 бит

    Тип развёртки : Прогрессивная

    Метод сжатия : С потерями

    Размер потока : 186 Мбайт (94%)

    Библиотека кодирования : XviD 63

    Формат : MPEG Audio

    Версия формата : Version 1

    Профиль формата : Layer 3

    Режим : Joint stereo

    Расширение режима : MS Stereo

    Идентификатор кодека : 55

    Идентификатор кодека/Подсказка : MP3

    Продолжительность : 13 м

    Вид битрейта : Постоянный

    Битрейт : 128 Кбит/с

    Канал(ы) : 2 канала(ов)

    Частота : 48.0 кГц

    Метод сжатия : С потерями

    Размер потока : 11,9 Мбайт (6%)

    Выравнивание : Соединение по промежуткам

    Продолжительность промежутка : 40 мс (1.00 видеокадр)

    Время предзагрузки промежутка : 504 мс

    Библиотека кодирования : LAME3.98r

    Настройки программы : -m j -V 4 -q 2 -lowpass 17 -b 128

    02 Принцесса в поиске

    06 Отель «У весёлого альпиниста»

    07 Ураган на спор

    08 Силуэт на снегу

    09 Жажда скорости

    10 Они могут обойтись и без нас

    11 Пин - песчинка

    12 Очень большая штука

    13 Горшочек, не вари!

    14 Энцелад. Вода и жизнь

    16 Параллельный мир

    18 Переломный момент

    19 Сверхпроводимость и капелька любви

    20 Солнечный бриз

    21 Мыльная опера на все времена

    22 У медведя на уме

    24 Диета для Вселенной

    26 Второе солнце

    27 Уши для Ушарика

    28 Малышка на миллион

    29 Светосила искусства

    30 Прививка от Кроша (первая серия)

    31 Прививка от Кроша (вторая серия)

    32 Сказка для Биби

    33 То, что нельзя объяснить

    34 Бортовой дневник

    36 Таймер на тысячу лет

    37 Домино и бабочки

    39 В наилучшем виде

    46 Бортовой дневник (выпуск 2)

    47 Стражи порядка

    48 Яркий след в истории

    50 Исправительное питание

    52 Секрет совершенства

    43 [HDTVRip] Антигерой

    47 [HDTVRip] Стражи порядка

    48 [HDTVRip] Яркий след в истории

    49 [HDTVRip] Гляделки

    50 [HDTVRip] Исправительное питание

    51 [HDTVRip] Суперстирка

    Раздача приобрела законченный вид и мной больше обновляться не будет.

    Заменены на DVDRip'ы следующие серии:

    37 [HDTVRip] Домино и бабочки

    40 [HDTVRip] Метод Ёжика

    41 [SATRip] Будь проще!

    44 [HDTVRip] Кремень

    45 [HDTVRip] Супер-бактерия

    46 [HDTVRip] Бортовой дневник (выпуск 2)

    Заменены на DVDRip'ы следующие серии:

    24 [SATRip] Диета для Вселенной

    25 [SATRip] Нечто

    27 [SATRip] Уши для Ушарика

    29 [SATRip] Светосила искусства

    30 [SATRip] Прививка от Кроша (первая серия)

    31 [SATRip] Прививка от Кроша (вторая серия)