Софт-Архив

Тараканище Скачать Мультфильм Торрент

Рейтинг: 4.1/5.0 (13 проголосовавших)

Категория: Торрент-файлы

Описание

Скачать мультфильм Тараканище (1963) DVDRip через торрент

Скачать мультфильм Тараканище (Владимир Полковников) / [1963, мультфильм, короткометражка, DVDRip] - торрент

Скачать мультфильм через торрент бесплатно. Мультфильм доступен на нашем торрент-трекере бесплатно, без регистрации и смс.

Тараканище скачать мультфильм торрентПеревод: не требуется

Формат: DVDRip, AVI, DivX, AC3

Режиссер: Владимир Полковников

напугал всех зверей, но был проглочен обыкновенным маленьким воробышком.

2426Kbps avg, 0.33bit/pixel

Аудио: русский 48.0KHz, AC3, Dolby Digital, 3/2 (L,C,R,l,r) + LFE ch,

448.00Kbps avg [Оригинал]

Filesize: 340.97 Mb ( 357 537 792 bytes )

Play length: 00:16:31.679 (24792 frames)

Subtitles: Not Present

Video: 640x464 (1.38:1), 25 fps, DivX Codec 5.2.1 build 1328

2426 kbps avg, 0.33 bit/pixel

Audio: 48 kHz, AC3 Dolby Digital, 3/2 (L,C,R,l,r) + LFE ch,

*сценарий: Владимир Сутеев, Корней Чуковский

*оператор: Н. Климова

*композитор: Александр Варламов

*релиз на DVD: 2 июля 2009, «Союз-Видео», .

Тараканище скачать мультфильм торрент

Тараканище скачать мультфильм торрент

Тараканище скачать мультфильм торрент

Тараканище скачать мультфильм торрент

Информация о торренте:

Скачан: 13336 раз

Статус: Проверен Зарегистрирован на трекере: 2007-09-15 01:38

тараканище скачать мультфильм торрент:

  • скачать
  • скачать
  • Другие статьи

    Скачать мультфильм Тараканище (1963) DVD бесплатно

    Скачать мультфильм Тараканище (1963) DVD бесплатно скачать торрент

    Тараканище скачать мультфильм торрент

    Режиссер: Владимир Полковников

    В ролях: Алексей Грибов, Нина Никитина, Юрий Филимонов, Сергей Цейц

    Продолжительность: 17 мин.

    Тараканище скачать мультфильм торрент

    Тараканище скачать мультфильм торрент

    Тараканище скачать мультфильм торрент

    Перевод: не требуется

    Видео: PAL 4:3 (720x576) VBR

    Аудио: Russian (Dolby AC3, 6 ch), Russian (Dolby AC3, 1 ch)

    tarakanishhe-1963.torrent [19,32 Kb] (cкачиваний: 34) Тараканище скачать мультфильм торрент

    Мойдодыр (1939, 1954), Тараканище, Федорино горе, От двух до пяти, Ваня и крокодил, Краденое солнце (1939-1984) DVDRip от New-Team - Скачать торрент

    тараканище скачать мультфильм торрент

    • Тараканище скачать мультфильм торрент

    Жанр: мультфильм, короткометражка

    Продолжительность: (01:20:27) 00:09:34, 00:11:10, 00:10:24, 00:16:33, 00:07:22, 00:16:31, 00:08:53

    Оригинальная аудиодорожка: русский

    Ваня и крокодил История о том, как в Петрограде появляется Крокодил и пугает обитателей города. Его не боится маленький мальчик Ваня Васильчиков. Крокодил оказывается не страшным и заводит дружбу с Ваней.

    Краденое солнце По сказке Чуковского.

    Мойдодыр-1939, 1954 Экранизация известной одноименной сказки К. Чуковского о мальчике-грязнуле, который не любил умываться. Поэтому от него убежали все вещи. Мойдодыр заставил Мочалку и Мыло насильно вымыть неряху.

    От двух до пяти В мультфильме рассказывается об удивительной способности детей по-своему объяснять непонятные им слова и создавать новые и смешные «свои» слова.

    Тараканище По сказке К. Чуковского о страшном-престрашном Тараканище, который до смерти напугал всех зверей, но был проглочен обыкновенным маленьким воробышком.

    Федорино горе По сказке Чуковского.

    1143 kbps avg, 0.149 bit/pixel

    Аудио: 48 kHz, MP3 2,0, 128 kbps

    Полное имя : Sbornik.MoYdodyr.1939-1984.DVDRip-745_[New-team]_by_AVP_StudioТараканище.avi

    Формат/Информация : Audio Video Interleave

    Размер файла : 151 Мбайт

    Продолжительность : 16 м.

    Общий поток : 1281 Кбит/сек

    Программа кодирования : VirtualDubModRus 1.5.10.2 (build 2542/release)

    Библиотека кодирования : VirtualDubMod build 2542/release

    Формат : MPEG-4 Visual

    Профиль формата : Advanced Simple@L5

    Параметр BVOP формата : 1

    Параметр QPel формата : Нет

    Параметр GMC формата : Без точки перехода

    Параметр матрицы формата : Выборочная

    Идентификатор кодека : XVID

    Идентификатор кодека/Подсказка : XviD

    Продолжительность : 16 м.

    Битрейт : 1143 Кбит/сек

    Ширина : 640 пикселей

    Высота : 480 пикселей

    Соотношение сторон : 4:3

    Частота кадров : 25,000 кадров/сек

    Цветовое пространство : YUV

    Субдискретизация насыщенности : 4:2:0

    Битовая глубина : 8 бит

    Тип развёртки : Прогрессивная

    Метод сжатия : С потерями

    Размер потока : 135 Мбайт (89%)

    Библиотека кодирования : XviD 73

    Формат : MPEG Audio

    Версия формата : Version 1

    Профиль формата : Layer 3

    Идентификатор кодека : 55

    Идентификатор кодека/Подсказка : MP3

    Продолжительность : 16 м.

    Вид битрейта : Постоянный

    Битрейт : 128 Кбит/сек

    Каналы : 2 канала

    Частота : 48,0 КГц

    Метод сжатия : С потерями

    Размер потока : 15,1 Мбайт (10%)

    Выравнивание : Соединение по промежуткам

    Продолжительность промежутка : 40 мс. (1,00 видеокадр)

    Время предзагрузки промежутка : 504 мс.

    Библиотека кодирования : LAME3.99r

    Настройки программы : -m s -V 4 -q 2 -lowpass 17 -b 128

    Тараканище скачать торрент бесплатно, Тараканище torrent

    Тараканище скачать торрент

    Тараканище скачать мультфильм торрент

    Один из самых популярных мультфильмов советского периода. Большинство людей, если даже не боятся тараканов, но испытывают к ним чувство некоторой брезгливости. В сюжете данного мультфильма, снятого по мотивам произведения Корнея Чуковского, появление рыжего таракана с огромными усами вносит настоящую панику среди зверей. При виде его даже самые большие, самые страшные и свирепые звери попрятались и тихо плакали. Еще бы –он потребовал от них принести ему своих малышей, чтобы он их проглотил. Даже тигры, слоны, бегемоты и крокодилы не избежали общей участи –все испытывали необыкновенный страх и спешили спрятаться кто куда. Таракан бы и дальше бесчинствовал, пугая зверье своими усами, которыми он так устрашающе шевелил, если бы поблизости не оказался обыкновенный серый воробьишка. Он случайно пролетам над этими местами и увидел происходящее. Увидев, что вся паника из-за какого-то таракана, он подлетел к нему одним махом склевал его, не оставив даже усов. Все звери были счастливы и от души благодарили своего спасителя. Стоит посмотреть эту картину, в которой участвовал и создатель главной идеи как рассказчик и свидетель описываемых событий.Рекомендуется для просмотра всей семьей, чтобы показать главную идею раскрываемого сюжета-не стоит бояться того, что кажется таким устрашающим. Ведь оно может быть устранено одним движением так, что и следа от него не останется. Как не осталось усов от таракана.

    Тараканище скачать через торрент

    Аудио: 48 kHz, MPEG Layer 3, 2 ch,

    Видео: 640x480 (1.33:1), 25 fps, XviD Final 1.1 (build 41)

    Тараканище (1963) скачать торрент бесплатно HD

    Тараканище

    Тараканище скачать мультфильм торрент

    По сказке К. Чуковского о страшном-престрашном Тараканище, который до смерти напугал всех зверей, но был проглочен обыкновенным маленьким воробышком.

    Жанр: мультфильм, короткометражка

    Продолжительность: 17 мин.

    Том и Джерри: Потерянный дракон

  • Тараканище скачать мультфильм торрент

    Старик и море

  • Тараканище скачать мультфильм торрент

    Мертв по прибытии

  • Тараканище скачать мультфильм торрент

    Адам и Ева

  • Тараканище скачать мультфильм торрент

    Мы рекомендуем Вам зарегистрироваться либо войти на сайт под своим именем.

    Посетители, находящиеся в группе Гости, не могут оставлять комментарии к данной публикации.