Софт-Архив

скачать торрент терпеливый 2016

Рейтинг: 4.0/5.0 (147 проголосовавших)

Категория: Торрент-файлы

Описание

Терпеливый (2016) скачать торрент бесплатно

Терпеливый (2016) скачать торрент

Скачать торрент терпеливый 2016

Оригинальное название: Tarde para la ira

Режиссер: Рауль Аревало

В ролях: Маноло Соло, Луис Кальехо, Антонио де ла Торре, Рут Диас, Алисия Рубио

Продолжительность: 92 мин. / 01:32

Перевод: Профессиональный (многоголосый) [СПД]

Скачать торрент терпеливый 2016

Скачать торрент терпеливый 2016

Скачать торрент терпеливый 2016

tarde-para-la-ira.torrent [14,07 Kb] (cкачиваний: 22) Скачать торрент терпеливый 2016

скачать торрент терпеливый 2016:

  • скачать
  • скачать
  • Другие статьи

    Скачать торрент терпеливый 2016

    скачать торрент терпеливый 2016

    • Скачать торрент терпеливый 2016

    Мужчина, который теряет свою жену во время ограбления ювелирного магазина, планирует найти и отомстить грабителям и с каждым днем гнев внутри него только растет.

    Перевод: Авторский (одноголосый)

    Видео: 720x302 (2.40:1), 24.000 fps, AVC (H.264),

    1018 Кbps, bit/pixel 0.195

    Аудио: 44.100 kHz, MPEG Layer 3, 2 ch,

    Format version : Version 4 / Version 2

    File size : 813 MiB

    Duration : 1h 32mn

    Overall bit rate : 1 234 Kbps

    Encoded date : UTC 2017-01-13 13:08:06

    Writing application : mkvmerge v8.3.0 ('Over the Horizon') 64bit

    Writing library : libebml v1.3.1 + libmatroska v1.4.2

    _STATISTICS_WRITING_APP : mkvmerge v8.3.0 ('Over the Horizon') 64bit

    _STATISTICS_WRITING_DATE_UTC : 2017-01-13 13:08:06

    _STATISTICS_TAGS : BPS DURATION NUMBER_OF_FRAMES NUMBER_OF_BYTES

    Format/Info : Advanced Video Codec

    Format settings, CABAC : Yes

    Format settings, ReFrames : 5 frames

    Codec ID : V_MPEG4/ISO/AVC

    Duration : 1h 32mn

    Bit rate : 1 018 Kbps

    Width : 720 pixels

    Height : 302 pixels

    Display aspect ratio : 2.40:1

    Frame rate mode : Constant

    Frame rate : 24.000 fps

    Color space : YUV

    Chroma subsampling : 4:2:0

    Bit depth : 8 bits

    Scan type : Progressive

    Stream size : 670 MiB (82%)

    Writing library : x264 core 148 r2705 3f5ed56

    Encoding settings : cabac=1 / ref=5 / deblock=1:-1:-1 / analyse=0x3:0x113 / me=umh / subme=8 / psy=1 / psy_rd=1.00:0.15 / mixed_ref=1 / me_range=16 / chroma_me=1 / trellis=2 / 8x8dct=1 / cqm=0 / deadzone=21,11 / fast_pskip=1 / chroma_qp_offset=-3 / threads=9 / lookahead_threads=1 / sliced_threads=0 / nr=0 / decimate=1 / interlaced=0 / bluray_compat=0 / constrained_intra=0 / bframes=3 / b_pyramid=2 / b_adapt=2 / b_bias=0 / direct=3 / weightb=1 / open_gop=0 / weightp=2 / keyint=250 / keyint_min=24 / scenecut=40 / intra_refresh=0 / rc_lookahead=50 / rc=crf / mbtree=1 / crf=19.0 / qcomp=0.60 / qpmin=0 / qpmax=69 / qpstep=4 / ip_ratio=1.40 / aq=1:1.00

    Matrix coefficients : BT.709

    Color range : Limited

    _STATISTICS_WRITING_APP : mkvmerge v8.3.0 ('Over the Horizon') 64bit

    _STATISTICS_WRITING_DATE_UTC : 2017-01-13 13:08:06

    _STATISTICS_TAGS : BPS DURATION NUMBER_OF_FRAMES NUMBER_OF_BYTES

    Скачать торрент Терпеливый

    Терпеливый / Tarde para la ira (2016) WEB-DLRip | L1

    Скачать торрент терпеливый 2016

    • Жанр: Триллеры
    • Рейтинг материала: 4.0
    • Количество голосов: 1
    • Добавил материал: koledg124g
    • Дата добавления материала: 16.01.2017 - 19:42
    • Количество просмотров: 163
    • Количество загрузок: 13
    • Общий размер файла: 1.37 GB

    Оригинальное название: Tarde para la ira

    Год выхода: 9 сентября 2016

    Страна/Студия: Испания / Agosto la PelГ­cula, La Canica Films

    Кинорежиссёр: Рауль Аревало

    В ролях/актеры: Антонио де ла Торре, Луис Кальехо, Алисия Рубио, Маноло Соло, Рут Диас, Рауль Хименес, Фонт Гарсия

    Перевод/язык: любительский (одноголосый) - Xixidok

    Мужчина, который теряет свою жену во время ограбления ювелирного магазина, планирует найти и отомстить грабителям и с каждым днем гнев внутри него только растет.

    Скачать торрент терпеливый 2016

    Терпеливый / Tarde para la ira [триллер, 2016] HDRip-AVC, Avo - скачать торрент

    Добавлено: 13 янв 2017, 21:32

    Скачать торрент терпеливый 2016

    Скачать торрент терпеливый 2016

    15 фев 2012, 16:44

    • Скачать торрент терпеливый 2016

    Мужчина, который теряет свою жену во время ограбления ювелирного магазина, планирует найти и отомстить грабителям и с каждым днем гнев внутри него только растет.

    Перевод: Авторский (одноголосый)

    Видео: 720x302 (2.40:1), 24.000 fps, AVC (H.264),

    1018 Кbps, bit/pixel 0.195

    Аудио: 44.100 kHz, MPEG Layer 3, 2 ch,

    Format version : Version 4 / Version 2

    File size : 813 MiB

    Duration : 1h 32mn

    Overall bit rate : 1 234 Kbps

    Encoded date : UTC 2017-01-13 13:08:06

    Writing application : mkvmerge v8.3.0 ('Over the Horizon') 64bit

    Writing library : libebml v1.3.1 + libmatroska v1.4.2

    _STATISTICS_WRITING_APP : mkvmerge v8.3.0 ('Over the Horizon') 64bit

    _STATISTICS_WRITING_DATE_UTC : 2017-01-13 13:08:06

    _STATISTICS_TAGS : BPS DURATION NUMBER_OF_FRAMES NUMBER_OF_BYTES

    Format/Info : Advanced Video Codec

    Format settings, CABAC : Yes

    Format settings, ReFrames : 5 frames

    Codec ID : V_MPEG4/ISO/AVC

    Duration : 1h 32mn

    Bit rate : 1 018 Kbps

    Width : 720 pixels

    Height : 302 pixels

    Display aspect ratio : 2.40:1

    Frame rate mode : Constant

    Frame rate : 24.000 fps

    Color space : YUV

    Chroma subsampling : 4:2:0

    Bit depth : 8 bits

    Scan type : Progressive

    Stream size : 670 MiB (82%)

    Writing library : x264 core 148 r2705 3f5ed56

    Encoding settings : cabac=1 / ref=5 / deblock=1:-1:-1 / analyse=0x3:0x113 / me=umh / subme=8 / psy=1 / psy_rd=1.00:0.15 / mixed_ref=1 / me_range=16 / chroma_me=1 / trellis=2 / 8x8dct=1 / cqm=0 / deadzone=21,11 / fast_pskip=1 / chroma_qp_offset=-3 / threads=9 / lookahead_threads=1 / sliced_threads=0 / nr=0 / decimate=1 / interlaced=0 / bluray_compat=0 / constrained_intra=0 / bframes=3 / b_pyramid=2 / b_adapt=2 / b_bias=0 / direct=3 / weightb=1 / open_gop=0 / weightp=2 / keyint=250 / keyint_min=24 / scenecut=40 / intra_refresh=0 / rc_lookahead=50 / rc=crf / mbtree=1 / crf=19.0 / qcomp=0.60 / qpmin=0 / qpmax=69 / qpstep=4 / ip_ratio=1.40 / aq=1:1.00

    Matrix coefficients : BT.709

    Color range : Limited

    _STATISTICS_WRITING_APP : mkvmerge v8.3.0 ('Over the Horizon') 64bit

    _STATISTICS_WRITING_DATE_UTC : 2017-01-13 13:08:06

    _STATISTICS_TAGS : BPS DURATION NUMBER_OF_FRAMES NUMBER_OF_BYTES

    Скачать торрент терпеливый 2016

    Терпеливый / Tarde para la ira (2016) Скачать торрент

    Скачать торрент терпеливый 2016

    Год создания: 2016

    Режиссер: Рауль Аревало

    Главный продюсер: Беатрис Бодегас, Серджо Диаз

    Сценарист: Рауль Аревало, David Pulido

    Работа с камерой: Арнау Вальс Коломер

    Категория / Жанр: триллер

    Актерский состав: Антонио де ла Торре, Луис Кальехо, Алисия Рубио, Маноло Соло, Рут Диас, Рауль Хименес, Фонт Гарсия

    Премьера в мире: 9 сентября 2016

    Сюжет кинофильма: Терпеливый (2016)

    В августе 2007 года банда грабителей осуществляет налет на ювелирный магазин. В ходе ограбления погибает женщина. Одного из преступников по имени Карро удается упечь за решетку. Но разве это может исправить ситуацию и вернуть жизнь убитой женщине? Муж потерпевшей не находит себе места. Теперь он живет лишь с одной целью - отомстить за жену. Он терпеливо ждет долгих восемь лет пока Карро не выходит на свободу. Преступник решил начать новую жизнь. Но прежде ему придется расплатиться по счетам за старые грехи.

    Скачать торрент терпеливый 2016

    Перевод / Озвучка: Любительский многоголосый - СПД (Присутствует реклама)

    Время / Продолжительность фильма: 01:32:30

    Информация о видео-файле:

    Видео: XviD, 1657 Кбит/с, 720x304

    Аудио: AC3, 2 ch, 448 Кбит/с

    Скачать фильм, бесплатно с торрента, без регистрации: Скачать торрент терпеливый 2016

    Скачать торрент терпеливый 2016

    Скачать торрентом: Терпеливый / Tarde para la ira (2016) BDRip 720p

    Перевод / Озвучка: Любительский многоголосый - СПД (Присутствует реклама)

    Время / Продолжительность фильма: 01:32:30

    Информация о видео-файле:

    Видео: MPEG-4 AVC, 5592 Кбит/с, 1280x540

    Аудио: AC3, 2 ch, 640 Кбит/с

    Скачать фильм, бесплатно с торрента, без регистрации: Скачать торрент терпеливый 2016

    Скачать торрент терпеливый 2016

    Похожие новости Комментарии (1)

    Посетители, находящиеся в группе Гости, не могут оставлять комментарии к данной публикации.