Софт-Архив

Xattab Скачать Торрент

Рейтинг: 4.9/5.0 (1139 проголосовавших)

Категория: Торрент-файлы

Описание

Скачать сериал Умар ибн аль-Хаттаб, 1 сезон 1-30 серии из 30

Скачать сериал Умар ибн аль-Хаттаб, 1 сезон 1-30 серии из 30 / Farouk Omar [Рисалат] (Хэйтем Али) [2012, исторический, военный, биография, драма, DVDRip, P] - торрент

Нажмите на синюю кнопку, чтобы скачать сериал через торрент бесплатно. Сериал доступен на нашем торрент-трекере бесплатно, без регистрации и смс.

1 сезон (1-30 серии из 30)

Продолжительность: 30 x 00:40:00

2330 kbps avg, 0.45 bit/pixel

Xattab скачать торрент

Xattab скачать торрент

Xattab скачать торрент

Xattab скачать торрент

Xattab скачать торрент

Xattab скачать торрент

Xattab скачать торрент

Если понравился этот релиз, поднимайте его в топ.

Информация о торренте:

Скачан: 13990 раз

Статус: Проверен Зарегистрирован на трекере: 2013-12-07 16:34

Xattab Торрент:

  • скачать
  • скачать
  • Другие статьи

    Умар аль-Фарук

    xattab скачать торрент

    Xattab скачать торрент

    Xattab скачать торрент

    Xattab скачать торрент

    Xattab скачать торрент

    Xattab скачать торрент

    * Форматы и их краткое описание.

    AVI - видео кодеки XviD, стандартное разрешение фильма 720x384;

    MKV - видео кодеки AVC, стандартное разрешение фильма 720x384;

    MKV 720р - видео кодеки H.26x или AVC, стандартное разрешение фильма 1280 x 720;

    MKV 1080р - видео кодеки H.26x или AVC, стандартное разрешение фильма 1920x1080;

    DVD video - образ DVD диска, видео кодеки MPEG2, стандартное разрешение фильма 720x576.

    M2TS - образ Blu-Ray диска, стандартное разрешение фильма 1920x1080;

    Умар аль-Фарук. Умар ибн аль-Хаттаб (Farouk Omar) год выпуска 2012 скачать торрент бесплатно, без регистрации и SMS (СМС).

    Сериал Умар ибн аль-Хаттаб (2012) скачать торрент бесплатно все серии

    Умар ибн аль-Хаттаб

    Xattab скачать торрент

    Фильм, основанный на реальных событиях, повествует об истории жизни второго праведного халифа Умара ибн аль-Хаттаба (Умар аль-Фарук), одного из самых ярых последователей пророка и первых исламских государей.

    Жанр: биография, драма, военный, история

    Продолжительность: 45 мин.

    Скачать Умар ибн аль-Хаттаб 2012 через торрент в хорошем качестве

    Антиганг

  • Xattab скачать торрент

    В центре внимания

  • Xattab скачать торрент

    Сосед-террорист

  • Xattab скачать торрент

    Мисс Поттер

  • Xattab скачать торрент

    Дрю Питерсон: Неприкасаемый

  • Мы рекомендуем Вам зарегистрироваться либо войти на сайт под своим именем.

    Посетители, находящиеся в группе Гости, не могут оставлять комментарии к данной публикации.

    Умар аль-Фарук

    Умар аль-Фарук. Умар ибн аль-Хаттаб / Farouk Omar / Сезон: 1 / Серии: 1-30 из 30 (Хатем Али) [2012, Катар, Исторический , Драма, WEBRip-AVC] MVO (Рисалат) + Original

    Xattab скачать торрент

    Стаж: 7 лет 5 месяцев

    Nurhamid · 28-Янв-13 16:15 (4 года 7 месяцев назад, ред. 08-Мар-13 12:06)

    Год выпуска : 2012

    Жанр : Исторический, Драма

    Перевод : Профессиональный (многоголосый закадровый), Рисалат

    Режиссёр : Хатем Али

    В ролях : Samer Ismail, Ghassan Massoud и другие

    Описание : Умар аль-Фарук – Умар ибн аль-Хаттаб

    Фильм основанный на реальных событиях, повествует об истории жизни второго праведного халифа Умара ибн аль-Хаттаба (Умар аль-Фарук), одного из самых ярых последователей пророка и первых исламских государей.

    Аравия, VII н.э. В борьбе с немногочисленными последователями новой религии, ислама, могущественное племя курайшитов хочет заручиться поддержкой местного богатыря - бесстрашного Умара ибн аль-Хаттаба, который по их замыслу должен убить Пророка Мухаммада и покончить с новой и монотеистической верой арабов раз и навсегда. Он же(Умар) вплоть до 6-го года от начала пророчества был явным противником Ислама и мусульман. Но со временем пересмотрел взгляды на Ислам под влиянием своей сестры, которая дала ему прочесть Коран, и изъявил желание встретиться с Пророком Мухаммадом. После этого события Умар стал одним из ближайших сподвижников Пророка. А после смерти Абу Бакра ас-Сиддика – первого исламского халифа – Мединский Халифат возглавил Умар ибн аль-Хаттаб, став вторым праведным халифом.

    При его правлении исламские армии победоносно повергали войска Византийской Империи и Сасанидской Персии, значительно расширяя пределы халифата и включая в него всё новые территории. Мировое исламское государство крепло, становилось сильнее и величественнее, простираясь на многие земли и утверждая Ислам.

    Самый дорогой сериал арабского телевидения. Спецэффекты этого сериала сделаны в Голливуде. Захватывающий арабский сериал о жизни сподвижника Умара ибн аль-Хаттаба, который является одним из самых важных фигур в истории Ислама.

    Доп. информация : Продолжительность:

    00:41:00 серия // И 30-ая серия: 01:25:25

    Сами серии были скачаны из "Вконтакте" с загруженных DVDRip`ов "Рисалатского исходного DVD", прежде чем сгруппированы в торрент.

    Согласно IMDb, "Ratings: 8,8/10".

    Количество серий: 30

    Ссылка на предыдущие и альтернативные раздачи : Все раздачи сериала

    Видео кодек : AVC

    Аудио кодек : AAC

    Видео : 1280x720 (16:9), 25.000 fps, AVC

    1800 kbps, 0,078 Bit/Pixel

    Аудио : Русский, AAC, 44.1 KHz, 2 ch, 128.00 Kbps

    Формат файла: .mp4 (MPEG-4)

    Размер файла: 550.47 MB

    Длительность: 40mn 8s

    Навигация по главам: Нет

    Bitrate (все потоки): 1 917 Kbps

    Тип битрейта (все потоки): Variable

    . при помощи: Lavf52.40.0

    Тип потока: Видео

    Размеры изображения: 1280 x 720 (16:9)

    Частота кадров: 25.000 fps

    Размер потока: 512 MiB (93%)

    Битрейт: 1 800 Kbps

    Библиотека кодирования: x264 core 79

    Настройки кодирования: cabac=1 / ref=3 / deblock=1:0:0 / analyse=0x3:0x113 / me=hex / subme=7 / psy=1 / psy_rd=1.0:0.0 / mixed_ref=1 / me_range=16 / chroma_me=1 / trellis=1 / 8x8dct=1 / cqm=0 / deadzone=21,11 / chroma_qp_offset=-2 / threads=24 / nr=0 / decimate=1 / mbaff=0 / constrained_intra=0 / bframes=3 / b_pyramid=0 / b_adapt=1 / b_bias=0 / direct=1 / wpredb=32 / wpredp=2 / keyint=250 / keyint_min=25 / scenecut=40 / rc_lookahead=40 / rc=abr / mbtree=1 / bitrate=1800 / ratetol=2.2 / qcomp=0.60 / qpmin=10 / qpmax=51 / qpstep=4 / ip_ratio=1.41 / aq=1:1.00

    Тип потока: Звук #1

    Частота дискретизации: 44.1 KHz

    Каналов: 2 channels

    Битрейт: 128 Kbps

    Имя файла: Farouk_Omar_s02.mp4

    Формат файла: .mp4 (MPEG-4)

    Размер файла: 564.62 MB

    Длительность: 40mn 40s

    Навигация по главам: Нет

    Bitrate (все потоки): 1 941 Kbps

    Тип битрейта (все потоки): Variable

    . при помощи: Lavf52.40.0

    Тип потока: Видео

    Размеры изображения: 1280 x 720 (16:9)

    Частота кадров: 25.000 fps

    Размер потока: 526 MiB (93%)

    Битрейт: 1 800 Kbps

    Библиотека кодирования: x264 core 79

    Настройки кодирования: cabac=1 / ref=3 / deblock=1:0:0 / analyse=0x3:0x113 / me=hex / subme=7 / psy=1 / psy_rd=1.0:0.0 / mixed_ref=1 / me_range=16 / chroma_me=1 / trellis=1 / 8x8dct=1 / cqm=0 / deadzone=21,11 / chroma_qp_offset=-2 / threads=24 / nr=0 / decimate=1 / mbaff=0 / constrained_intra=0 / bframes=3 / b_pyramid=0 / b_adapt=1 / b_bias=0 / direct=1 / wpredb=32 / wpredp=2 / keyint=250 / keyint_min=25 / scenecut=40 / rc_lookahead=40 / rc=abr / mbtree=1 / bitrate=1800 / ratetol=2.2 / qcomp=0.60 / qpmin=10 / qpmax=51 / qpstep=4 / ip_ratio=1.41 / aq=1:1.00

    Тип потока: Звук #1

    Частота дискретизации: 44.1 KHz

    Каналов: 2 channels

    Битрейт: 128 Kbps

    Имя файла: Farouk_Omar_s03.mp4

    Формат файла: .mp4 (MPEG-4)

    Размер файла: 554.79 MB

    Длительность: 40mn 30s

    Навигация по главам: Нет

    Bitrate (все потоки): 1 915 Kbps

    Тип битрейта (все потоки): Variable

    . при помощи: Lavf52.40.0

    Тип потока: Видео

    Размеры изображения: 1280 x 720 (16:9)

    Частота кадров: 25.000 fps

    Размер потока: 516 MiB (93%)

    Битрейт: 1 800 Kbps

    Библиотека кодирования: x264 core 79

    Настройки кодирования: cabac=1 / ref=3 / deblock=1:0:0 / analyse=0x3:0x113 / me=hex / subme=7 / psy=1 / psy_rd=1.0:0.0 / mixed_ref=1 / me_range=16 / chroma_me=1 / trellis=1 / 8x8dct=1 / cqm=0 / deadzone=21,11 / chroma_qp_offset=-2 / threads=24 / nr=0 / decimate=1 / mbaff=0 / constrained_intra=0 / bframes=3 / b_pyramid=0 / b_adapt=1 / b_bias=0 / direct=1 / wpredb=32 / wpredp=2 / keyint=250 / keyint_min=25 / scenecut=40 / rc_lookahead=40 / rc=abr / mbtree=1 / bitrate=1800 / ratetol=2.2 / qcomp=0.60 / qpmin=10 / qpmax=51 / qpstep=4 / ip_ratio=1.41 / aq=1:1.00

    Тип потока: Звук #1

    Частота дискретизации: 44.1 KHz

    Каналов: 2 channels

    Битрейт: 128 Kbps

    Имя файла: Farouk_Omar_s04.mp4

    Формат файла: .mp4 (MPEG-4)

    Размер файла: 563.99 MB

    Длительность: 40mn 44s

    Навигация по главам: Нет

    Bitrate (все потоки): 1 936 Kbps

    Тип битрейта (все потоки): Variable

    . при помощи: Lavf52.40.0

    Тип потока: Видео

    Размеры изображения: 1280 x 720 (16:9)

    Частота кадров: 25.000 fps

    Размер потока: 525 MiB (93%)

    Битрейт: 1 800 Kbps

    Библиотека кодирования: x264 core 79

    Настройки кодирования: cabac=1 / ref=3 / deblock=1:0:0 / analyse=0x3:0x113 / me=hex / subme=7 / psy=1 / psy_rd=1.0:0.0 / mixed_ref=1 / me_range=16 / chroma_me=1 / trellis=1 / 8x8dct=1 / cqm=0 / deadzone=21,11 / chroma_qp_offset=-2 / threads=24 / nr=0 / decimate=1 / mbaff=0 / constrained_intra=0 / bframes=3 / b_pyramid=0 / b_adapt=1 / b_bias=0 / direct=1 / wpredb=32 / wpredp=2 / keyint=250 / keyint_min=25 / scenecut=40 / rc_lookahead=40 / rc=abr / mbtree=1 / bitrate=1800 / ratetol=2.2 / qcomp=0.60 / qpmin=10 / qpmax=51 / qpstep=4 / ip_ratio=1.41 / aq=1:1.00

    Тип потока: Звук #1

    Частота дискретизации: 44.1 KHz

    Каналов: 2 channels

    Битрейт: 128 Kbps

    Имя файла: Farouk_Omar_s05.mp4

    Формат файла: .mp4 (MPEG-4)

    Размер файла: 588.37 MB

    Длительность: 42mn 56s

    Навигация по главам: Нет

    Bitrate (все потоки): 1 916 Kbps

    Тип битрейта (все потоки): Variable

    . при помощи: Lavf52.40.0

    Тип потока: Видео

    Размеры изображения: 1280 x 720 (16:9)

    Частота кадров: 25.000 fps

    Размер потока: 548 MiB (93%)

    Битрейт: 1 800 Kbps

    Библиотека кодирования: x264 core 79

    Настройки кодирования: cabac=1 / ref=3 / deblock=1:0:0 / analyse=0x3:0x113 / me=hex / subme=7 / psy=1 / psy_rd=1.0:0.0 / mixed_ref=1 / me_range=16 / chroma_me=1 / trellis=1 / 8x8dct=1 / cqm=0 / deadzone=21,11 / chroma_qp_offset=-2 / threads=24 / nr=0 / decimate=1 / mbaff=0 / constrained_intra=0 / bframes=3 / b_pyramid=0 / b_adapt=1 / b_bias=0 / direct=1 / wpredb=32 / wpredp=2 / keyint=250 / keyint_min=25 / scenecut=40 / rc_lookahead=40 / rc=abr / mbtree=1 / bitrate=1800 / ratetol=2.2 / qcomp=0.60 / qpmin=10 / qpmax=51 / qpstep=4 / ip_ratio=1.41 / aq=1:1.00

    Тип потока: Звук #1

    Частота дискретизации: 44.1 KHz

    Каналов: 2 channels

    Битрейт: 128 Kbps

    Имя файла: Farouk_Omar_s06.mp4

    Формат файла: .mp4 (MPEG-4)

    Размер файла: 594.84 MB

    Длительность: 42mn 58s

    Навигация по главам: Нет

    Bitrate (все потоки): 1 935 Kbps

    Тип битрейта (все потоки): Variable

    . при помощи: Lavf52.40.0

    Тип потока: Видео

    Размеры изображения: 1280 x 720 (16:9)

    Частота кадров: 25.000 fps

    Размер потока: 554 MiB (93%)

    Битрейт: 1 800 Kbps

    Библиотека кодирования: x264 core 79

    Настройки кодирования: cabac=1 / ref=3 / deblock=1:0:0 / analyse=0x3:0x113 / me=hex / subme=7 / psy=1 / psy_rd=1.0:0.0 / mixed_ref=1 / me_range=16 / chroma_me=1 / trellis=1 / 8x8dct=1 / cqm=0 / deadzone=21,11 / chroma_qp_offset=-2 / threads=24 / nr=0 / decimate=1 / mbaff=0 / constrained_intra=0 / bframes=3 / b_pyramid=0 / b_adapt=1 / b_bias=0 / direct=1 / wpredb=32 / wpredp=2 / keyint=250 / keyint_min=25 / scenecut=40 / rc_lookahead=40 / rc=abr / mbtree=1 / bitrate=1800 / ratetol=2.2 / qcomp=0.60 / qpmin=10 / qpmax=51 / qpstep=4 / ip_ratio=1.41 / aq=1:1.00

    Тип потока: Звук #1

    Частота дискретизации: 44.1 KHz

    Каналов: 2 channels

    Битрейт: 128 Kbps

    Имя файла: Farouk_Omar_s07.mp4

    Формат файла: .mp4 (MPEG-4)

    Размер файла: 563.26 MB

    Длительность: 40mn 42s

    Навигация по главам: Нет

    Bitrate (все потоки): 1 934 Kbps

    Тип битрейта (все потоки): Variable

    . при помощи: Lavf52.40.0

    Тип потока: Видео

    Размеры изображения: 1280 x 720 (16:9)

    Частота кадров: 25.000 fps

    Размер потока: 525 MiB (93%)

    Битрейт: 1 800 Kbps

    Библиотека кодирования: x264 core 79

    Настройки кодирования: cabac=1 / ref=3 / deblock=1:0:0 / analyse=0x3:0x113 / me=hex / subme=7 / psy=1 / psy_rd=1.0:0.0 / mixed_ref=1 / me_range=16 / chroma_me=1 / trellis=1 / 8x8dct=1 / cqm=0 / deadzone=21,11 / chroma_qp_offset=-2 / threads=24 / nr=0 / decimate=1 / mbaff=0 / constrained_intra=0 / bframes=3 / b_pyramid=0 / b_adapt=1 / b_bias=0 / direct=1 / wpredb=32 / wpredp=2 / keyint=250 / keyint_min=25 / scenecut=40 / rc_lookahead=40 / rc=abr / mbtree=1 / bitrate=1800 / ratetol=2.2 / qcomp=0.60 / qpmin=10 / qpmax=51 / qpstep=4 / ip_ratio=1.41 / aq=1:1.00

    Тип потока: Звук #1

    Частота дискретизации: 44.1 KHz

    Каналов: 2 channels

    Битрейт: 128 Kbps

    Имя файла: Farouk_Omar_s08.mp4

    Формат файла: .mp4 (MPEG-4)

    Размер файла: 557.90 MB

    Длительность: 40mn 37s

    Навигация по главам: Нет

    Bitrate (все потоки): 1 920 Kbps

    Тип битрейта (все потоки): Variable

    . при помощи: Lavf52.40.0

    Тип потока: Видео

    Размеры изображения: 1280 x 720 (16:9)

    Частота кадров: 25.000 fps

    Размер потока: 519 MiB (93%)

    Битрейт: 1 800 Kbps

    Библиотека кодирования: x264 core 79

    Настройки кодирования: cabac=1 / ref=3 / deblock=1:0:0 / analyse=0x3:0x113 / me=hex / subme=7 / psy=1 / psy_rd=1.0:0.0 / mixed_ref=1 / me_range=16 / chroma_me=1 / trellis=1 / 8x8dct=1 / cqm=0 / deadzone=21,11 / chroma_qp_offset=-2 / threads=24 / nr=0 / decimate=1 / mbaff=0 / constrained_intra=0 / bframes=3 / b_pyramid=0 / b_adapt=1 / b_bias=0 / direct=1 / wpredb=32 / wpredp=2 / keyint=250 / keyint_min=25 / scenecut=40 / rc_lookahead=40 / rc=abr / mbtree=1 / bitrate=1800 / ratetol=2.2 / qcomp=0.60 / qpmin=10 / qpmax=51 / qpstep=4 / ip_ratio=1.41 / aq=1:1.00

    Тип потока: Звук #1

    Частота дискретизации: 44.1 KHz

    Каналов: 2 channels

    Битрейт: 128 Kbps

    Имя файла: Farouk_Omar_s09.mp4

    Формат файла: .mp4 (MPEG-4)

    Размер файла: 576.37 MB

    Длительность: 41mn 30s

    Навигация по главам: Нет

    Bitrate (все потоки): 1 941 Kbps

    Тип битрейта (все потоки): Variable

    . при помощи: Lavf52.40.0

    Тип потока: Видео

    Размеры изображения: 1280 x 720 (16:9)

    Частота кадров: 25.000 fps

    Размер потока: 537 MiB (93%)

    Битрейт: 1 800 Kbps

    Библиотека кодирования: x264 core 79

    Настройки кодирования: cabac=1 / ref=3 / deblock=1:0:0 / analyse=0x3:0x113 / me=hex / subme=7 / psy=1 / psy_rd=1.0:0.0 / mixed_ref=1 / me_range=16 / chroma_me=1 / trellis=1 / 8x8dct=1 / cqm=0 / deadzone=21,11 / chroma_qp_offset=-2 / threads=24 / nr=0 / decimate=1 / mbaff=0 / constrained_intra=0 / bframes=3 / b_pyramid=0 / b_adapt=1 / b_bias=0 / direct=1 / wpredb=32 / wpredp=2 / keyint=250 / keyint_min=25 / scenecut=40 / rc_lookahead=40 / rc=abr / mbtree=1 / bitrate=1800 / ratetol=2.2 / qcomp=0.60 / qpmin=10 / qpmax=51 / qpstep=4 / ip_ratio=1.41 / aq=1:1.00

    Тип потока: Звук #1

    Частота дискретизации: 44.1 KHz

    Каналов: 2 channels

    Битрейт: 128 Kbps

    Имя файла: Farouk_Omar_s10.mp4

    Формат файла: .mp4 (MPEG-4)

    Размер файла: 591.83 MB

    Длительность: 44mn 9s

    Навигация по главам: Нет

    Bitrate (все потоки): 1 874 Kbps

    Тип битрейта (все потоки): Variable

    . при помощи: Lavf52.40.0

    Тип потока: Видео

    Размеры изображения: 1280 x 720 (16:9)

    Частота кадров: 25.000 fps

    Размер потока: 550 MiB (93%)

    Битрейт: 1 800 Kbps

    Библиотека кодирования: x264 core 79

    Настройки кодирования: cabac=1 / ref=3 / deblock=1:0:0 / analyse=0x3:0x113 / me=hex / subme=7 / psy=1 / psy_rd=1.0:0.0 / mixed_ref=1 / me_range=16 / chroma_me=1 / trellis=1 / 8x8dct=1 / cqm=0 / deadzone=21,11 / chroma_qp_offset=-2 / threads=24 / nr=0 / decimate=1 / mbaff=0 / constrained_intra=0 / bframes=3 / b_pyramid=0 / b_adapt=1 / b_bias=0 / direct=1 / wpredb=32 / wpredp=2 / keyint=250 / keyint_min=25 / scenecut=40 / rc_lookahead=40 / rc=abr / mbtree=1 / bitrate=1800 / ratetol=2.2 / qcomp=0.60 / qpmin=10 / qpmax=51 / qpstep=4 / ip_ratio=1.41 / aq=1:1.00

    Тип потока: Звук #1

    Частота дискретизации: 44.1 KHz

    Каналов: 2 channels

    Битрейт: 128 Kbps

    Имя файла: Farouk_Omar_s11.mp4

    Формат файла: .mp4 (MPEG-4)

    Размер файла: 586.87 MB

    Длительность: 41mn 15s

    Навигация по главам: Нет

    Bitrate (все потоки): 1 989 Kbps

    Тип битрейта (все потоки): Variable

    . при помощи: Lavf52.40.0

    Тип потока: Видео

    Размеры изображения: 1280 x 720 (16:9)

    Частота кадров: 25.000 fps

    Размер потока: 548 MiB (93%)

    Битрейт: 1 800 Kbps

    Библиотека кодирования: x264 core 79

    Настройки кодирования: cabac=1 / ref=3 / deblock=1:0:0 / analyse=0x3:0x113 / me=hex / subme=7 / psy=1 / psy_rd=1.0:0.0 / mixed_ref=1 / me_range=16 / chroma_me=1 / trellis=1 / 8x8dct=1 / cqm=0 / deadzone=21,11 / chroma_qp_offset=-2 / threads=24 / nr=0 / decimate=1 / mbaff=0 / constrained_intra=0 / bframes=3 / b_pyramid=0 / b_adapt=1 / b_bias=0 / direct=1 / wpredb=32 / wpredp=2 / keyint=250 / keyint_min=25 / scenecut=40 / rc_lookahead=40 / rc=abr / mbtree=1 / bitrate=1800 / ratetol=2.2 / qcomp=0.60 / qpmin=10 / qpmax=51 / qpstep=4 / ip_ratio=1.41 / aq=1:1.00

    Тип потока: Звук #1

    Частота дискретизации: 44.1 KHz

    Каналов: 2 channels

    Битрейт: 128 Kbps

    Имя файла: Farouk_Omar_s12.mp4

    Формат файла: .mp4 (MPEG-4)

    Размер файла: 566.05 MB

    Длительность: 40mn 42s

    Навигация по главам: Нет

    Bitrate (все потоки): 1 944 Kbps

    Тип битрейта (все потоки): Variable

    . при помощи: Lavf52.40.0

    Тип потока: Видео

    Размеры изображения: 1280 x 720 (16:9)

    Частота кадров: 25.000 fps

    Размер потока: 527 MiB (93%)

    Битрейт: 1 800 Kbps

    Библиотека кодирования: x264 core 79

    Настройки кодирования: cabac=1 / ref=3 / deblock=1:0:0 / analyse=0x3:0x113 / me=hex / subme=7 / psy=1 / psy_rd=1.0:0.0 / mixed_ref=1 / me_range=16 / chroma_me=1 / trellis=1 / 8x8dct=1 / cqm=0 / deadzone=21,11 / chroma_qp_offset=-2 / threads=24 / nr=0 / decimate=1 / mbaff=0 / constrained_intra=0 / bframes=3 / b_pyramid=0 / b_adapt=1 / b_bias=0 / direct=1 / wpredb=32 / wpredp=2 / keyint=250 / keyint_min=25 / scenecut=40 / rc_lookahead=40 / rc=abr / mbtree=1 / bitrate=1800 / ratetol=2.2 / qcomp=0.60 / qpmin=10 / qpmax=51 / qpstep=4 / ip_ratio=1.41 / aq=1:1.00

    Тип потока: Звук #1

    Частота дискретизации: 44.1 KHz

    Каналов: 2 channels

    Битрейт: 128 Kbps

    Имя файла: Farouk_Omar_s13.mp4

    Формат файла: .mp4 (MPEG-4)

    Размер файла: 556.26 MB

    Длительность: 40mn 50s

    Навигация по главам: Нет

    Bitrate (все потоки): 1 905 Kbps

    Тип битрейта (все потоки): Variable

    . при помощи: Lavf52.40.0

    Тип потока: Видео

    Размеры изображения: 1280 x 720 (16:9)

    Частота кадров: 25.000 fps

    Размер потока: 517 MiB (93%)

    Битрейт: 1 800 Kbps

    Библиотека кодирования: x264 core 79

    Настройки кодирования: cabac=1 / ref=3 / deblock=1:0:0 / analyse=0x3:0x113 / me=hex / subme=7 / psy=1 / psy_rd=1.0:0.0 / mixed_ref=1 / me_range=16 / chroma_me=1 / trellis=1 / 8x8dct=1 / cqm=0 / deadzone=21,11 / chroma_qp_offset=-2 / threads=24 / nr=0 / decimate=1 / mbaff=0 / constrained_intra=0 / bframes=3 / b_pyramid=0 / b_adapt=1 / b_bias=0 / direct=1 / wpredb=32 / wpredp=2 / keyint=250 / keyint_min=25 / scenecut=40 / rc_lookahead=40 / rc=abr / mbtree=1 / bitrate=1800 / ratetol=2.2 / qcomp=0.60 / qpmin=10 / qpmax=51 / qpstep=4 / ip_ratio=1.41 / aq=1:1.00

    Тип потока: Звук #1

    Частота дискретизации: 44.1 KHz

    Каналов: 2 channels

    Битрейт: 128 Kbps

    Имя файла: Farouk_Omar_s14.mp4

    Формат файла: .mp4 (MPEG-4)

    Размер файла: 583.03 MB

    Длительность: 42mn 55s

    Навигация по главам: Нет

    Bitrate (все потоки): 1 899 Kbps

    Тип битрейта (все потоки): Variable

    . при помощи: Lavf52.40.0

    Тип потока: Видео

    Размеры изображения: 1280 x 720 (16:9)

    Частота кадров: 25.000 fps

    Размер потока: 542 MiB (93%)

    Битрейт: 1 800 Kbps

    Библиотека кодирования: x264 core 79

    Настройки кодирования: cabac=1 / ref=3 / deblock=1:0:0 / analyse=0x3:0x113 / me=hex / subme=7 / psy=1 / psy_rd=1.0:0.0 / mixed_ref=1 / me_range=16 / chroma_me=1 / trellis=1 / 8x8dct=1 / cqm=0 / deadzone=21,11 / chroma_qp_offset=-2 / threads=24 / nr=0 / decimate=1 / mbaff=0 / constrained_intra=0 / bframes=3 / b_pyramid=0 / b_adapt=1 / b_bias=0 / direct=1 / wpredb=32 / wpredp=2 / keyint=250 / keyint_min=25 / scenecut=40 / rc_lookahead=40 / rc=abr / mbtree=1 / bitrate=1800 / ratetol=2.2 / qcomp=0.60 / qpmin=10 / qpmax=51 / qpstep=4 / ip_ratio=1.41 / aq=1:1.00

    Тип потока: Звук #1

    Частота дискретизации: 44.1 KHz

    Каналов: 2 channels

    Битрейт: 128 Kbps

    Имя файла: Farouk_Omar_s15.mp4

    Формат файла: .mp4 (MPEG-4)

    Размер файла: 598.11 MB

    Длительность: 44mn 17s

    Навигация по главам: Нет

    Bitrate (все потоки): 1 888 Kbps

    Тип битрейта (все потоки): Variable

    . при помощи: Lavf52.40.0

    Тип потока: Видео

    Размеры изображения: 1280 x 720 (16:9)

    Частота кадров: 25.000 fps

    Размер потока: 556 MiB (93%)

    Битрейт: 1 800 Kbps

    Библиотека кодирования: x264 core 79

    Настройки кодирования: cabac=1 / ref=3 / deblock=1:0:0 / analyse=0x3:0x113 / me=hex / subme=7 / psy=1 / psy_rd=1.0:0.0 / mixed_ref=1 / me_range=16 / chroma_me=1 / trellis=1 / 8x8dct=1 / cqm=0 / deadzone=21,11 / chroma_qp_offset=-2 / threads=24 / nr=0 / decimate=1 / mbaff=0 / constrained_intra=0 / bframes=3 / b_pyramid=0 / b_adapt=1 / b_bias=0 / direct=1 / wpredb=32 / wpredp=2 / keyint=250 / keyint_min=25 / scenecut=40 / rc_lookahead=40 / rc=abr / mbtree=1 / bitrate=1800 / ratetol=2.2 / qcomp=0.60 / qpmin=10 / qpmax=51 / qpstep=4 / ip_ratio=1.41 / aq=1:1.00

    Тип потока: Звук #1

    Частота дискретизации: 44.1 KHz

    Каналов: 2 channels

    Битрейт: 128 Kbps

    Имя файла: Farouk_Omar_s16.mp4

    Формат файла: .mp4 (MPEG-4)

    Размер файла: 581.91 MB

    Длительность: 42mn 33s

    Навигация по главам: Нет

    Bitrate (все потоки): 1 912 Kbps

    Тип битрейта (все потоки): Variable

    . при помощи: Lavf52.40.0

    Тип потока: Видео

    Размеры изображения: 1280 x 720 (16:9)

    Частота кадров: 25.000 fps

    Размер потока: 541 MiB (93%)

    Битрейт: 1 800 Kbps

    Библиотека кодирования: x264 core 79

    Настройки кодирования: cabac=1 / ref=3 / deblock=1:0:0 / analyse=0x3:0x113 / me=hex / subme=7 / psy=1 / psy_rd=1.0:0.0 / mixed_ref=1 / me_range=16 / chroma_me=1 / trellis=1 / 8x8dct=1 / cqm=0 / deadzone=21,11 / chroma_qp_offset=-2 / threads=24 / nr=0 / decimate=1 / mbaff=0 / constrained_intra=0 / bframes=3 / b_pyramid=0 / b_adapt=1 / b_bias=0 / direct=1 / wpredb=32 / wpredp=2 / keyint=250 / keyint_min=25 / scenecut=40 / rc_lookahead=40 / rc=abr / mbtree=1 / bitrate=1800 / ratetol=2.2 / qcomp=0.60 / qpmin=10 / qpmax=51 / qpstep=4 / ip_ratio=1.41 / aq=1:1.00

    Тип потока: Звук #1

    Частота дискретизации: 44.1 KHz

    Каналов: 2 channels

    Битрейт: 128 Kbps

    Имя файла: Farouk_Omar_s17.mp4

    Формат файла: .mp4 (MPEG-4)

    Размер файла: 560.26 MB

    Длительность: 40mn 45s

    Навигация по главам: Нет

    Bitrate (все потоки): 1 922 Kbps

    Тип битрейта (все потоки): Variable

    . при помощи: Lavf52.40.0

    Тип потока: Видео

    Размеры изображения: 1280 x 720 (16:9)

    Частота кадров: 25.000 fps

    Размер потока: 522 MiB (93%)

    Битрейт: 1 800 Kbps

    Библиотека кодирования: x264 core 79

    Настройки кодирования: cabac=1 / ref=3 / deblock=1:0:0 / analyse=0x3:0x113 / me=hex / subme=7 / psy=1 / psy_rd=1.0:0.0 / mixed_ref=1 / me_range=16 / chroma_me=1 / trellis=1 / 8x8dct=1 / cqm=0 / deadzone=21,11 / chroma_qp_offset=-2 / threads=24 / nr=0 / decimate=1 / mbaff=0 / constrained_intra=0 / bframes=3 / b_pyramid=0 / b_adapt=1 / b_bias=0 / direct=1 / wpredb=32 / wpredp=2 / keyint=250 / keyint_min=25 / scenecut=40 / rc_lookahead=40 / rc=abr / mbtree=1 / bitrate=1800 / ratetol=2.2 / qcomp=0.60 / qpmin=10 / qpmax=51 / qpstep=4 / ip_ratio=1.41 / aq=1:1.00

    Тип потока: Звук #1

    Частота дискретизации: 44.1 KHz

    Каналов: 2 channels

    Битрейт: 128 Kbps

    Имя файла: Farouk_Omar_s18.mp4

    Формат файла: .mp4 (MPEG-4)

    Размер файла: 558.26 MB

    Длительность: 39mn 57s

    Навигация по главам: Нет

    Bitrate (все потоки): 1 953 Kbps

    Тип битрейта (все потоки): Variable

    . при помощи: Lavf52.40.0

    Тип потока: Видео

    Размеры изображения: 1280 x 720 (16:9)

    Частота кадров: 25.000 fps

    Размер потока: 520 MiB (93%)

    Битрейт: 1 800 Kbps

    Библиотека кодирования: x264 core 79

    Настройки кодирования: cabac=1 / ref=3 / deblock=1:0:0 / analyse=0x3:0x113 / me=hex / subme=7 / psy=1 / psy_rd=1.0:0.0 / mixed_ref=1 / me_range=16 / chroma_me=1 / trellis=1 / 8x8dct=1 / cqm=0 / deadzone=21,11 / chroma_qp_offset=-2 / threads=24 / nr=0 / decimate=1 / mbaff=0 / constrained_intra=0 / bframes=3 / b_pyramid=0 / b_adapt=1 / b_bias=0 / direct=1 / wpredb=32 / wpredp=2 / keyint=250 / keyint_min=25 / scenecut=40 / rc_lookahead=40 / rc=abr / mbtree=1 / bitrate=1800 / ratetol=2.2 / qcomp=0.60 / qpmin=10 / qpmax=51 / qpstep=4 / ip_ratio=1.41 / aq=1:1.00

    Тип потока: Звук #1

    Частота дискретизации: 44.1 KHz

    Каналов: 2 channels

    Битрейт: 128 Kbps

    Имя файла: Farouk_Omar_s19.mp4

    Формат файла: .mp4 (MPEG-4)

    Размер файла: 546.89 MB

    Длительность: 40mn 14s

    Навигация по главам: Нет

    Bitrate (все потоки): 1 900 Kbps

    Тип битрейта (все потоки): Variable

    . при помощи: Lavf52.40.0

    Тип потока: Видео

    Размеры изображения: 1280 x 720 (16:9)

    Частота кадров: 25.000 fps

    Размер потока: 509 MiB (93%)

    Битрейт: 1 800 Kbps

    Библиотека кодирования: x264 core 79

    Настройки кодирования: cabac=1 / ref=3 / deblock=1:0:0 / analyse=0x3:0x113 / me=hex / subme=7 / psy=1 / psy_rd=1.0:0.0 / mixed_ref=1 / me_range=16 / chroma_me=1 / trellis=1 / 8x8dct=1 / cqm=0 / deadzone=21,11 / chroma_qp_offset=-2 / threads=24 / nr=0 / decimate=1 / mbaff=0 / constrained_intra=0 / bframes=3 / b_pyramid=0 / b_adapt=1 / b_bias=0 / direct=1 / wpredb=32 / wpredp=2 / keyint=250 / keyint_min=25 / scenecut=40 / rc_lookahead=40 / rc=abr / mbtree=1 / bitrate=1800 / ratetol=2.2 / qcomp=0.60 / qpmin=10 / qpmax=51 / qpstep=4 / ip_ratio=1.41 / aq=1:1.00

    Тип потока: Звук #1

    Частота дискретизации: 44.1 KHz

    Каналов: 2 channels

    Битрейт: 128 Kbps

    Имя файла: Farouk_Omar_s20.mp4

    Формат файла: .mp4 (MPEG-4)

    Размер файла: 596.63 MB

    Длительность: 44mn 24s

    Навигация по главам: Нет

    Bitrate (все потоки): 1 878 Kbps

    Тип битрейта (все потоки): Variable

    . при помощи: Lavf52.40.0

    Тип потока: Видео

    Размеры изображения: 1280 x 720 (16:9)

    Частота кадров: 25.000 fps

    Размер потока: 554 MiB (93%)

    Битрейт: 1 800 Kbps

    Библиотека кодирования: x264 core 79

    Настройки кодирования: cabac=1 / ref=3 / deblock=1:0:0 / analyse=0x3:0x113 / me=hex / subme=7 / psy=1 / psy_rd=1.0:0.0 / mixed_ref=1 / me_range=16 / chroma_me=1 / trellis=1 / 8x8dct=1 / cqm=0 / deadzone=21,11 / chroma_qp_offset=-2 / threads=24 / nr=0 / decimate=1 / mbaff=0 / constrained_intra=0 / bframes=3 / b_pyramid=0 / b_adapt=1 / b_bias=0 / direct=1 / wpredb=32 / wpredp=2 / keyint=250 / keyint_min=25 / scenecut=40 / rc_lookahead=40 / rc=abr / mbtree=1 / bitrate=1800 / ratetol=2.2 / qcomp=0.60 / qpmin=10 / qpmax=51 / qpstep=4 / ip_ratio=1.41 / aq=1:1.00

    Тип потока: Звук #1

    Частота дискретизации: 44.1 KHz

    Каналов: 2 channels

    Битрейт: 128 Kbps

    Имя файла: Farouk_Omar_s21.mp4

    Формат файла: .mp4 (MPEG-4)

    Размер файла: 589.07 MB

    Длительность: 43mn 8s

    Навигация по главам: Нет

    Bitrate (все потоки): 1 909 Kbps

    Тип битрейта (все потоки): Variable

    . при помощи: Lavf52.40.0

    Тип потока: Видео

    Размеры изображения: 1280 x 720 (16:9)

    Частота кадров: 25.000 fps

    Размер потока: 548 MiB (93%)

    Битрейт: 1 800 Kbps

    Библиотека кодирования: x264 core 79

    Настройки кодирования: cabac=1 / ref=3 / deblock=1:0:0 / analyse=0x3:0x113 / me=hex / subme=7 / psy=1 / psy_rd=1.0:0.0 / mixed_ref=1 / me_range=16 / chroma_me=1 / trellis=1 / 8x8dct=1 / cqm=0 / deadzone=21,11 / chroma_qp_offset=-2 / threads=24 / nr=0 / decimate=1 / mbaff=0 / constrained_intra=0 / bframes=3 / b_pyramid=0 / b_adapt=1 / b_bias=0 / direct=1 / wpredb=32 / wpredp=2 / keyint=250 / keyint_min=25 / scenecut=40 / rc_lookahead=40 / rc=abr / mbtree=1 / bitrate=1800 / ratetol=2.2 / qcomp=0.60 / qpmin=10 / qpmax=51 / qpstep=4 / ip_ratio=1.41 / aq=1:1.00

    Тип потока: Звук #1

    Частота дискретизации: 44.1 KHz

    Каналов: 2 channels

    Битрейт: 128 Kbps

    Имя файла: Farouk_Omar_s22.mp4

    Формат файла: .mp4 (MPEG-4)

    Размер файла: 563.09 MB

    Длительность: 41mn 7s

    Навигация по главам: Нет

    Bitrate (все потоки): 1 914 Kbps

    Тип битрейта (все потоки): Variable

    . при помощи: Lavf52.40.0

    Тип потока: Видео

    Размеры изображения: 1280 x 720 (16:9)

    Частота кадров: 25.000 fps

    Размер потока: 524 MiB (93%)

    Битрейт: 1 800 Kbps

    Библиотека кодирования: x264 core 79

    Настройки кодирования: cabac=1 / ref=3 / deblock=1:0:0 / analyse=0x3:0x113 / me=hex / subme=7 / psy=1 / psy_rd=1.0:0.0 / mixed_ref=1 / me_range=16 / chroma_me=1 / trellis=1 / 8x8dct=1 / cqm=0 / deadzone=21,11 / chroma_qp_offset=-2 / threads=24 / nr=0 / decimate=1 / mbaff=0 / constrained_intra=0 / bframes=3 / b_pyramid=0 / b_adapt=1 / b_bias=0 / direct=1 / wpredb=32 / wpredp=2 / keyint=250 / keyint_min=25 / scenecut=40 / rc_lookahead=40 / rc=abr / mbtree=1 / bitrate=1800 / ratetol=2.2 / qcomp=0.60 / qpmin=10 / qpmax=51 / qpstep=4 / ip_ratio=1.41 / aq=1:1.00

    Тип потока: Звук #1

    Частота дискретизации: 44.1 KHz

    Каналов: 2 channels

    Битрейт: 128 Kbps

    Имя файла: Farouk_Omar_s23.mp4

    Формат файла: .mp4 (MPEG-4)

    Размер файла: 597.49 MB

    Длительность: 41mn 48s

    Навигация по главам: Нет

    Bitrate (все потоки): 1 998 Kbps

    Тип битрейта (все потоки): Variable

    . при помощи: Lavf52.40.0

    Тип потока: Видео

    Размеры изображения: 1280 x 720 (16:9)

    Частота кадров: 25.000 fps

    Размер потока: 558 MiB (93%)

    Битрейт: 1 800 Kbps

    Библиотека кодирования: x264 core 79

    Настройки кодирования: cabac=1 / ref=3 / deblock=1:0:0 / analyse=0x3:0x113 / me=hex / subme=7 / psy=1 / psy_rd=1.0:0.0 / mixed_ref=1 / me_range=16 / chroma_me=1 / trellis=1 / 8x8dct=1 / cqm=0 / deadzone=21,11 / chroma_qp_offset=-2 / threads=24 / nr=0 / decimate=1 / mbaff=0 / constrained_intra=0 / bframes=3 / b_pyramid=0 / b_adapt=1 / b_bias=0 / direct=1 / wpredb=32 / wpredp=2 / keyint=250 / keyint_min=25 / scenecut=40 / rc_lookahead=40 / rc=abr / mbtree=1 / bitrate=1800 / ratetol=2.2 / qcomp=0.60 / qpmin=10 / qpmax=51 / qpstep=4 / ip_ratio=1.41 / aq=1:1.00

    Тип потока: Звук #1

    Частота дискретизации: 44.1 KHz

    Каналов: 2 channels

    Битрейт: 128 Kbps

    Имя файла: Farouk_Omar_s24.mp4

    Формат файла: .mp4 (MPEG-4)

    Размер файла: 569.92 MB

    Длительность: 41mn 21s

    Навигация по главам: Нет

    Bitrate (все потоки): 1 927 Kbps

    Тип битрейта (все потоки): Variable

    . при помощи: Lavf52.40.0

    Тип потока: Видео

    Размеры изображения: 1280 x 720 (16:9)

    Частота кадров: 25.000 fps

    Размер потока: 531 MiB (93%)

    Битрейт: 1 800 Kbps

    Библиотека кодирования: x264 core 79

    Настройки кодирования: cabac=1 / ref=3 / deblock=1:0:0 / analyse=0x3:0x113 / me=hex / subme=7 / psy=1 / psy_rd=1.0:0.0 / mixed_ref=1 / me_range=16 / chroma_me=1 / trellis=1 / 8x8dct=1 / cqm=0 / deadzone=21,11 / chroma_qp_offset=-2 / threads=24 / nr=0 / decimate=1 / mbaff=0 / constrained_intra=0 / bframes=3 / b_pyramid=0 / b_adapt=1 / b_bias=0 / direct=1 / wpredb=32 / wpredp=2 / keyint=250 / keyint_min=25 / scenecut=40 / rc_lookahead=40 / rc=abr / mbtree=1 / bitrate=1800 / ratetol=2.2 / qcomp=0.60 / qpmin=10 / qpmax=51 / qpstep=4 / ip_ratio=1.41 / aq=1:1.00

    Тип потока: Звук #1

    Частота дискретизации: 44.1 KHz

    Каналов: 2 channels

    Битрейт: 128 Kbps

    Имя файла: Farouk_Omar_s25.mp4

    Формат файла: .mp4 (MPEG-4)

    Размер файла: 600.08 MB

    Длительность: 45mn 28s

    Навигация по главам: Нет

    Bitrate (все потоки): 1 845 Kbps

    Тип битрейта (все потоки): Variable

    . при помощи: Lavf52.40.0

    Тип потока: Видео

    Размеры изображения: 1280 x 720 (16:9)

    Частота кадров: 25.000 fps

    Размер потока: 557 MiB (93%)

    Битрейт: 1 712 Kbps

    Библиотека кодирования: x264 core 79

    Настройки кодирования: cabac=1 / ref=3 / deblock=1:0:0 / analyse=0x3:0x113 / me=hex / subme=7 / psy=1 / psy_rd=1.0:0.0 / mixed_ref=1 / me_range=16 / chroma_me=1 / trellis=1 / 8x8dct=1 / cqm=0 / deadzone=21,11 / chroma_qp_offset=-2 / threads=24 / nr=0 / decimate=1 / mbaff=0 / constrained_intra=0 / bframes=3 / b_pyramid=0 / b_adapt=1 / b_bias=0 / direct=1 / wpredb=32 / wpredp=2 / keyint=250 / keyint_min=25 / scenecut=40 / rc_lookahead=40 / rc=abr / mbtree=1 / bitrate=1800 / ratetol=2.2 / qcomp=0.60 / qpmin=10 / qpmax=51 / qpstep=4 / ip_ratio=1.41 / aq=1:1.00

    Тип потока: Звук #1

    Частота дискретизации: 44.1 KHz

    Каналов: 2 channels

    Битрейт: 128 Kbps

    Имя файла: Farouk_Omar_s26.mp4

    Формат файла: .mp4 (MPEG-4)

    Размер файла: 585.80 MB

    Длительность: 42mn 30s

    Навигация по главам: Нет

    Bitrate (все потоки): 1 927 Kbps

    Тип битрейта (все потоки): Variable

    . при помощи: Lavf52.40.0

    Тип потока: Видео

    Размеры изображения: 1280 x 720 (16:9)

    Частота кадров: 25.000 fps

    Размер потока: 545 MiB (93%)

    Битрейт: 1 800 Kbps

    Библиотека кодирования: x264 core 79

    Настройки кодирования: cabac=1 / ref=3 / deblock=1:0:0 / analyse=0x3:0x113 / me=hex / subme=7 / psy=1 / psy_rd=1.0:0.0 / mixed_ref=1 / me_range=16 / chroma_me=1 / trellis=1 / 8x8dct=1 / cqm=0 / deadzone=21,11 / chroma_qp_offset=-2 / threads=24 / nr=0 / decimate=1 / mbaff=0 / constrained_intra=0 / bframes=3 / b_pyramid=0 / b_adapt=1 / b_bias=0 / direct=1 / wpredb=32 / wpredp=2 / keyint=250 / keyint_min=25 / scenecut=40 / rc_lookahead=40 / rc=abr / mbtree=1 / bitrate=1800 / ratetol=2.2 / qcomp=0.60 / qpmin=10 / qpmax=51 / qpstep=4 / ip_ratio=1.41 / aq=1:1.00

    Тип потока: Звук #1

    Частота дискретизации: 44.1 KHz

    Каналов: 2 channels

    Битрейт: 128 Kbps

    Имя файла: Farouk_Omar_s27.mp4

    Формат файла: .mp4 (MPEG-4)

    Размер файла: 570.88 MB

    Длительность: 40mn 41s

    Навигация по главам: Нет

    Bitrate (все потоки): 1 962 Kbps

    Тип битрейта (все потоки): Variable

    . при помощи: Lavf52.40.0

    Тип потока: Видео

    Размеры изображения: 1280 x 720 (16:9)

    Частота кадров: 25.000 fps

    Размер потока: 532 MiB (93%)

    Битрейт: 1 800 Kbps

    Библиотека кодирования: x264 core 79

    Настройки кодирования: cabac=1 / ref=3 / deblock=1:0:0 / analyse=0x3:0x113 / me=hex / subme=7 / psy=1 / psy_rd=1.0:0.0 / mixed_ref=1 / me_range=16 / chroma_me=1 / trellis=1 / 8x8dct=1 / cqm=0 / deadzone=21,11 / chroma_qp_offset=-2 / threads=24 / nr=0 / decimate=1 / mbaff=0 / constrained_intra=0 / bframes=3 / b_pyramid=0 / b_adapt=1 / b_bias=0 / direct=1 / wpredb=32 / wpredp=2 / keyint=250 / keyint_min=25 / scenecut=40 / rc_lookahead=40 / rc=abr / mbtree=1 / bitrate=1800 / ratetol=2.2 / qcomp=0.60 / qpmin=10 / qpmax=51 / qpstep=4 / ip_ratio=1.41 / aq=1:1.00

    Тип потока: Звук #1

    Частота дискретизации: 44.1 KHz

    Каналов: 2 channels

    Битрейт: 128 Kbps

    Имя файла: Farouk_Omar_s28.mp4

    Формат файла: .mp4 (MPEG-4)

    Размер файла: 553.34 MB

    Длительность: 40mn 26s

    Навигация по главам: Нет

    Bitrate (все потоки): 1 913 Kbps

    Тип битрейта (все потоки): Variable

    . при помощи: Lavf52.40.0

    Тип потока: Видео

    Размеры изображения: 1280 x 720 (16:9)

    Частота кадров: 25.000 fps

    Размер потока: 515 MiB (93%)

    Битрейт: 1 800 Kbps

    Библиотека кодирования: x264 core 79

    Настройки кодирования: cabac=1 / ref=3 / deblock=1:0:0 / analyse=0x3:0x113 / me=hex / subme=7 / psy=1 / psy_rd=1.0:0.0 / mixed_ref=1 / me_range=16 / chroma_me=1 / trellis=1 / 8x8dct=1 / cqm=0 / deadzone=21,11 / chroma_qp_offset=-2 / threads=24 / nr=0 / decimate=1 / mbaff=0 / constrained_intra=0 / bframes=3 / b_pyramid=0 / b_adapt=1 / b_bias=0 / direct=1 / wpredb=32 / wpredp=2 / keyint=250 / keyint_min=25 / scenecut=40 / rc_lookahead=40 / rc=abr / mbtree=1 / bitrate=1800 / ratetol=2.2 / qcomp=0.60 / qpmin=10 / qpmax=51 / qpstep=4 / ip_ratio=1.41 / aq=1:1.00

    Тип потока: Звук #1

    Частота дискретизации: 44.1 KHz

    Каналов: 2 channels

    Битрейт: 128 Kbps

    Имя файла: Farouk_Omar_s29.mp4

    Формат файла: .mp4 (MPEG-4)

    Размер файла: 557.82 MB

    Длительность: 40mn 23s

    Навигация по главам: Нет

    Bitrate (все потоки): 1 931 Kbps

    Тип битрейта (все потоки): Variable

    . при помощи: Lavf52.40.0

    Тип потока: Видео

    Размеры изображения: 1280 x 720 (16:9)

    Частота кадров: 25.000 fps

    Размер потока: 519 MiB (93%)

    Битрейт: 1 800 Kbps

    Библиотека кодирования: x264 core 79

    Настройки кодирования: cabac=1 / ref=3 / deblock=1:0:0 / analyse=0x3:0x113 / me=hex / subme=7 / psy=1 / psy_rd=1.0:0.0 / mixed_ref=1 / me_range=16 / chroma_me=1 / trellis=1 / 8x8dct=1 / cqm=0 / deadzone=21,11 / chroma_qp_offset=-2 / threads=24 / nr=0 / decimate=1 / mbaff=0 / constrained_intra=0 / bframes=3 / b_pyramid=0 / b_adapt=1 / b_bias=0 / direct=1 / wpredb=32 / wpredp=2 / keyint=250 / keyint_min=25 / scenecut=40 / rc_lookahead=40 / rc=abr / mbtree=1 / bitrate=1800 / ratetol=2.2 / qcomp=0.60 / qpmin=10 / qpmax=51 / qpstep=4 / ip_ratio=1.41 / aq=1:1.00

    Тип потока: Звук #1

    Частота дискретизации: 44.1 KHz

    Каналов: 2 channels

    Битрейт: 128 Kbps

    Имя файла: Farouk_Omar_s30.mp4

    Формат файла: .mp4 (MPEG-4)

    Размер файла: 1.13 GB

    Длительность: 1h 25mn

    Навигация по главам: Нет

    Bitrate (все потоки): 1 888 Kbps

    Тип битрейта (все потоки): Variable

    . при помощи: Lavf52.40.0

    Тип потока: Видео

    Размеры изображения: 1280 x 720 (16:9)

    Частота кадров: 25.000 fps

    Размер потока: 1.05 GiB (93%)

    Битрейт: 1 800 Kbps

    Библиотека кодирования: x264 core 79

    Настройки кодирования: cabac=1 / ref=3 / deblock=1:0:0 / analyse=0x3:0x113 / me=hex / subme=7 / psy=1 / psy_rd=1.0:0.0 / mixed_ref=1 / me_range=16 / chroma_me=1 / trellis=1 / 8x8dct=1 / cqm=0 / deadzone=21,11 / chroma_qp_offset=-2 / threads=24 / nr=0 / decimate=1 / mbaff=0 / constrained_intra=0 / bframes=3 / b_pyramid=0 / b_adapt=1 / b_bias=0 / direct=1 / wpredb=32 / wpredp=2 / keyint=250 / keyint_min=25 / scenecut=40 / rc_lookahead=40 / rc=abr / mbtree=1 / bitrate=1800 / ratetol=2.2 / qcomp=0.60 / qpmin=10 / qpmax=51 / qpstep=4 / ip_ratio=1.41 / aq=1:1.00

    Тип потока: Звук #1

    Частота дискретизации: 44.1 KHz

    Каналов: 2 channels

    Битрейт: 128 Kbps

    Трейлер к фильму

    Имя файла: treiler.720.mp4

    Формат файла: .mp4 (MPEG-4)

    Размер файла: 26.70 MB

    Длительность: 1mn 58s

    Навигация по главам: Нет

    Bitrate (все потоки): 1 887 Kbps

    Тип битрейта (все потоки): Variable

    . при помощи: Lavf52.40.0

    Тип потока: Видео

    Размеры изображения: 1280 x 720 (16:9)

    Частота кадров: 25.000 fps

    Размер потока: 24.8 MiB (93%)

    Битрейт: 1 800 Kbps

    Библиотека кодирования: x264 core 79

    Настройки кодирования: cabac=1 / ref=3 / deblock=1:0:0 / analyse=0x3:0x113 / me=hex / subme=7 / psy=1 / psy_rd=1.0:0.0 / mixed_ref=1 / me_range=16 / chroma_me=1 / trellis=1 / 8x8dct=1 / cqm=0 / deadzone=21,11 / chroma_qp_offset=-2 / threads=24 / nr=0 / decimate=1 / mbaff=0 / constrained_intra=0 / bframes=3 / b_pyramid=0 / b_adapt=1 / b_bias=0 / direct=1 / wpredb=32 / wpredp=2 / keyint=250 / keyint_min=25 / scenecut=40 / rc_lookahead=40 / rc=abr / mbtree=1 / bitrate=1800 / ratetol=2.2 / qcomp=0.60 / qpmin=10 / qpmax=51 / qpstep=4 / ip_ratio=1.41 / aq=1:1.00