Софт-Архив

скачать жажда мести через торрент

Рейтинг: 4.5/5.0 (807 проголосовавших)

Категория: Торрент-файлы

Описание

Жажда мести

Жажда мести / Khoon Bhari Maang (Ракеш Рошан) [1988, боевик, триллер, драма, DVDRip] DUB - скачать торрент

Добавлено: 15 янв 2012, 01:24

Скачать жажда мести через торрент

11 апр 2010, 18:10

Скачать жажда мести через торрент

Перевод: Профессиональный (полное дублирование), cубтитры: отсутствуют

В ролях: Ракеш Рошан, Рекха, Кадер Кхан, Кабир Беди, Сону Валия, А.К. Хангал, П. Джайрадж, Сулочана Латкар

1255 kbps avg, 0.18 bit/pixel

Аудио: 48 kHz, AC3 Dolby Digital, 2/0 (L,R) ch,

Полное имя: E:\Jajda.mesti.DVDRip.avi

Формат/Информация: Audio Video Interleave

Размер файла: 1,37 Гбайт

Продолжительность: 2 ч. 14 м.

Общий поток: 1454 Кбит/сек

Программа кодирования: VirtualDubMod 1.5.4.1 (build 2178/release)

Библиотека кодирования: VirtualDubMod build 2178/release

Формат: MPEG-4 Visual

Параметр BVOP формата: 1

Параметр QPel формата: Нет

Параметр GMC формата: Без точки перехода

Параметр матрицы формата: Default (H.263)

Режим смешивания: Сжатый битовый поток

Идентификатор кодека: DX50

Идентификатор кодека/Подсказка: DivX 5

Продолжительность: 2 ч. 14 м.

Битрейт: 1255 Кбит/сек

Ширина: 720 пикс.

Высота: 384 пикс.

Соотношение сторон: 1,875

Частота кадров: 25,000 кадр/сек

Цветовое пространство: YUV

Подвыборка цветности: 4:2:0

Битовая глубина: 8 бит

Тип развёртки: Прогрессивная

Метод сжатия: С потерями

Размер потока: 1,18 Гбайт (86%)

Библиотека кодирования: DivX 5.1.1 (Maupiti) (UTC 2003-11-19)

Формат/Информация: Audio Coding 3

Расширение режима: CM (complete main)

Идентификатор кодека: 2000

Продолжительность: 2 ч. 14 м.

Вид битрейта: Постоянный

Битрейт: 192 Кбит/сек

Канал(ы): 2 канала(ов)

Расположение каналов: Front: L R

Частота: 48,0 КГц

Битовая глубина: 16 бит

Метод сжатия: С потерями

Размер потока: 185 Мбайт (13%)

Выравнивание: Соединение по промежуткам

Продолжительность промежутка: 96мс. (2,40 видеокадров)

скачать жажда мести через торрент:

  • скачать
  • скачать
  • Другие статьи

    Скачать фильм Жажда мести

    Скачать фильм Жажда мести / Khoon Bhari Maang (Ракеш Рошан) [1988, боевик, триллер, драма, DVDRip] DUB - торрент

    Нажмите синюю кнопку, чтобы cкачать бесплатно через торрент фильм. Фильм доступен на нашем торрент-трекере бесплатно, без регистрации и смс.

    Скачать жажда мести через торрент

    Перевод: Профессиональный (полное дублирование), cубтитры: отсутствуют

    Формат: DVDRip, AVI, XviD, AC3

    Режиссер: Ракеш Рошан

    Скачать жажда мести через торрент

    1255 kbps avg, 0.18 bit/pixel

    Аудио: 48 kHz, AC3 Dolby Digital, 2/0 (L,R) ch,

    Полное имя : E:\Jajda.mesti.DVDRip.avi

    Формат/Информация : Audio Video Interleave

    Размер файла : 1,37 Гбайт

    Продолжительность : 2 ч. 14 м.

    Общий поток : 1454 Кбит/сек

    Программа кодирования : VirtualDubMod 1.5.4.1 (build 2178/release)

    Библиотека кодирования : VirtualDubMod build 2178/release

    Формат : MPEG-4 Visual

    Параметр BVOP формата : 1

    Параметр QPel формата : Нет

    Параметр GMC формата : Без точки перехода

    Параметр матрицы формата : Default (H.263)

    Режим смешивания : Сжатый битовый поток

    Идентификатор кодека : DX50

    Идентификатор кодека/Подсказка : DivX 5

    Продолжительность : 2 ч. 14 м.

    Битрейт : 1255 Кбит/сек

    Ширина : 720 пикс.

    Высота : 384 пикс.

    Соотношение сторон : 1,875

    Частота кадров : 25,000 кадр/сек

    Цветовое пространство : YUV

    Подвыборка цветности : 4:2:0

    Битовая глубина : 8 бит

    Тип развёртки : Прогрессивная

    Метод сжатия : С потерями

    Размер потока : 1,18 Гбайт (86%)

    Библиотека кодирования : DivX 5.1.1 (Maupiti) (UTC 2003-11-19)

    Формат/Информация : Audio Coding 3

    Расширение режима : CM (complete main)

    Идентификатор кодека : 2000

    Продолжительность : 2 ч. 14 м.

    Вид битрейта : Постоянный

    Битрейт : 192 Кбит/сек

    Канал(ы) : 2 канала(ов)

    Расположение каналов : Front: L R

    Частота : 48,0 КГц

    Битовая глубина : 16 бит

    Метод сжатия : С потерями

    Размер потока : 185 Мбайт (13%)

    Выравнивание : Соединение по промежуткам

    Продолжительность промежутка : 96 мс. (2,40 видеокадров)

    Время предзагрузки промежутка : 96 ms

    Скачать жажда мести через торрент

    Скачать жажда мести через торрент

    Скачать жажда мести через торрент

    Скачать жажда мести через торрент

    Информация о торренте:

    Скачан: 17690 раз

    Статус: Проверен Зарегистрирован на трекере: 2011-07-26 13:06

    Жажда мести (1988) смотреть онлайн или скачать фильм через торрент

    Жажда мести (1988)

    ( Khoon Bhari Mang )

    Дата выхода в России (или в Мире): 01.01.1988

    Владелец крупнейшей фирмы в области торговли уличает своего управляющего финансами в обмане. Управляющий, понимая, что ему грозит уголовная ответственность, избавляется от своего хозяина. Его взрослая дочь остается совершенно одна со своими маленькими детьми, которые потеряли как дедушку, так и отца, который так же погибает при неизвестных обстоятельствах. Она впадает в отчаяние – ведь она теряет верную опору в жизни и просто не представляет, какой будет её дальнейшая судьба. Оставшись у руля фирмы, управляющий сватает к ней своего племянника.

    Название фильма Название антологии

    26 Май 2009 00:00 - продолжительность 02:38

    Для просмотра скриншотов нажмите на описание торрента!

    Скачать жажда мести через торрент Скачать жажда мести через торрент Скачать жажда мести через торрент Скачать жажда мести через торрент Скачать жажда мести через торрент Скачать жажда мести через торрент Скачать жажда мести через торрент Скачать жажда мести через торрент Скачать жажда мести через торрент

    Фильмы похожие на Жажда мести

    Видео кодек: DivX

    Аудио кодек: AC3

    Видео: 720x384 (1.88:1), 25 fps, DivX Codec, 1419 kbps avg

    Аудио: 48 kHz, AC3 Dolby Digital, 2/0 (L,R) ch, 192 kbps avg

    Жажда мести

    (Khoon Bhari Mang)

    Скачать жажда мести через торрент

    Владелец крупнейшей фирмы в области торговли уличает своего управляющего финансами в обмане. Управляющий, понимая, что ему грозит уголовная ответственность, избавляется от своего хозяина. Его взрослая дочь остается совершенно одна со своими маленькими детьми, которые потеряли как дедушку, так и отца, который так же погибает при неизвестных обстоятельствах. Она впадает в отчаяние – ведь она теряет верную опору в жизни и просто не представляет, какой будет её дальнейшая судьба. Оставшись у руля фирмы, управляющий сватает к ней своего племянника.

    Жажда мести скачать торрент

    Жажда мести / Khoon Bhari Maang (Ракеш Рошан / Rakesh Roshan) [1988, Индия, Мелодрама, DVDRip] Dub + Sub Rus (полная версия)

    Скачать жажда мести через торрент

    Стаж: 9 лет 9 месяцев

    soso4eg · 03-Ноя-13 16:45 (3 года 9 месяцев назад, ред. 03-Ноя-13 16:49)

    Год выпуска : 1988

    Продолжительность : 02:26:39 Перевод : Профессиональный (полное дублирование)

    Субтитры : Есть (вырез. эпизоды в сов. версии и на песни) Режиссер : Ракеш Рошан / Rakesh Roshan В ролях : Рекха, Кабир Беди, Сону Валия, Кадер Кхан, А.К. Хангал, П. Джайрадж, Сулочана Латкар, Сулабха Дешпанде, Викас Ананд Описание : Хозяин крупной торговой фирмы ловит своего управляющего на незаконных финансовых махинациях. Тот, боясь судебного расследования, убивает хозяина. У него остается дочь с двумя маленькими детьми. Она в отчаянии.

    Ни мужа (он также погиб при загадочных обстоятельствах), ни отца, никакой опоры. Хитрый управляющий предлагает ей в мужья своего племянника.

    Тот, изображая благородного, пытается завладеть миллионным состоянием. Но жестокой будет расплата за все страдания, боль и отчаяние. Качество видео : DVDRip

    Исходник: DVD9 R1

    Формат видео : AVI Видео: XviD, 656x336, 23.976 fps, 1286 kbps

    Аудио : MP3, 48 kHz, 2 ch, 128 Kbps Перевод субтитров: larisa_k (спасибо!)

    Синхронизация дубляжа: debby (спасибо!)

    Риппер: soso4eg Большое спасибо СЕРЖИК1981 за помощь с переводом! =)

    Полное имя : D:\[Релизы]\Zhazhda.Mesti.1988.DVDRip.XviD-soso4eg.avi

    Формат/Информация : Audio Video Interleave

    Размер файла : 1,46 Гбайт

    Продолжительность : 2 ч. 26 м.

    Общий поток : 1424 Кбит/сек

    Название фильма : Zhazhda.mesti.1988.DVDRip.XviD.BwTorrents

    Программа кодирования : VirtualDubMod 1.5.10.3 | www.virtualdub-fr.org || (build 2550/release)

    Формат : MPEG-4 Visual

    Профиль формата : Advanced Simple@L5

    Параметр BVOP формата : 2

    Параметр QPel формата : Нет

    Параметр GMC формата : Без точки перехода

    Параметр матрицы формата : Default (MPEG)

    Идентификатор кодека : XVID

    Идентификатор кодека/Подсказка : XviD

    Продолжительность : 2 ч. 26 м.

    Битрейт : 1287 Кбит/сек

    Ширина : 656 пикселей

    Высота : 336 пикселей

    Соотношение сторон : 1,952

    Частота кадров : 23,976 кадра/сек

    Цветовое пространство : YUV

    Субдискретизация насыщенности : 4:2:0

    Битовая глубина : 8 бит

    Тип развёртки : Прогрессивная

    Метод сжатия : С потерями

    Размер потока : 1,32 Гбайт (90%)

    Библиотека кодирования : XviD 1.2.1 (UTC 2008-12-04)

    Формат : MPEG Audio

    Версия формата : Version 1

    Профиль формата : Layer 3

    Идентификатор кодека : 55

    Идентификатор кодека/Подсказка : MP3

    Продолжительность : 2 ч. 26 м.

    Вид битрейта : Постоянный

    Битрейт : 128 Кбит/сек

    Каналы : 2 канала

    Частота : 48,0 КГц

    Метод сжатия : С потерями

    Размер потока : 134 Мбайт (9%)

    Выравнивание : Соединение по промежуткам

    Продолжительность промежутка : 42 мс. (1,00 видеокадр)

    Время предзагрузки промежутка : 504 мс.

    Библиотека кодирования : LAME3.99r

    Настройки программы : -m s -V 4 -q 2 -lowpass 17 -b 128

    Скачать фильм Жажда мести через торрент бесплатно, без регистрации

    Жажда мести

    Скачать жажда мести через торрент

    Год выхода: 1988

    Студия/Страна: Film Kraft / Индия

    Режиссер: Ракеш Рошан

    В ролях: Рекха, Кадер Кхан, Викаш Ананд

    Длительность: 134 мин

    Перевод: Дублированный перевод (дубляж)

    Видео: 720х384, 1257 Kbps, DivX

    Звук: AC3, 2 ch, 192 Kbps

    Файлов: 1Хозяин крупной торговой фирмы ловит своего управляющего на незаконных финансовых махинациях. Тот, боясь судебного расследования, убивает хозяина. У него остается дочь с двумя маленькими детьми. Она в отчаянии. Ни мужа (он также погиб при загадочных обстоятельствах), ни отца, никакой опоры. Хитрый управляющий предлагает ей в мужья своего племянника. Тот, изображая благородного идиота, пытается завладеть миллионным состоянием. Но жестокой будет расплата за все страдания, боль и отчаяние.