Софт-Архив

жажда власти скачать торрент

Рейтинг: 4.3/5.0 (213 проголосовавших)

Категория: Торрент-файлы

Описание

Скачать торрент Тармашев C

Скачать торрент Тармашев C. - Жажда Власти (2017) FB2

Жажда власти скачать торрент

Жажда власти скачать торрент

Галактические войны, полные опасных приключений и тонких политических интриг! Битвы цивилизаций за престол, ради победы в которых можно рискнуть всем! Императорская гонка началась. Правило одно: Император должен быть из другой Галактики. Ловчая сеть ноль-переходов откроет порталы, и у цивилизаций, желающих обрести Императора, будут ровно одни имперские сутки. На этот раз Ловчая сеть указала на очень хорошо знакомую нам планету…

Сергей Тармашев — молодой российский писатель. Большая часть информации о прошлом этого человека засекречена. Известно о нем очень немногое – офицер в седьмом поколении, не женат, детей нет, окончил Суворовское училище, рос по гарнизонам в семье военного, служил в спецназе ГРУ, работал инструктором по рукопашному бою.

Живет в Москве, пишет фантастические романы. Первой заметной работой стал цикл «Древний», рассказывающий, что станет с миром и человечеством после глобальной ядерной трагедии, за несколько часов уничтожившей цивилизацию.

жажда власти скачать торрент:

  • скачать
  • скачать
  • Другие статьи

    Жажда Власти скачать fb2, rtf, epub, pdf, txt книгу Тармашев Сергей

    Жажда Власти

    Представляем новую грандиозную космооперу Сергея Тармашева, автора величественной саги «Древний», легендарных циклов «Тьма», «Холод», «Наследие» и «Ареал»!

    Галактические войны, полные опасных приключений и тонких политических интриг! Битвы цивилизаций за престол, ради победы в которых можно рискнуть всем!

    Императорская гонка началась. Правило одно: Император должен быть из другой Галактики. Ловчая сеть ноль-переходов откроет порталы, и у цивилизаций, желающих обрести Императора, будут ровно одни имперские сутки. На этот раз Ловчая сеть указала на очень хорошо знакомую нам планету…

    Произведение было опубликовано в 2017 году издательством АСТ. Книга входит в серию "Миры и войны Сергея Тармашева". На нашем сайте можно скачать книгу "Жажда Власти" в формате fb2, rtf, epub, pdf, txt или читать онлайн. Рейтинг книги составляет 3.11 из 5. Здесь так же можно перед прочтением обратиться к отзывам читателей, уже знакомых с книгой, и узнать их мнение. В интернет-магазине нашего партнера вы можете купить и прочитать книгу в бумажном варианте.

    Скачать фильм Жажда (2011) HDTV через торрент

    Скачать фильм Жажда (1-4 серии из 4) (Алексей Колмогоров) / [2011, военный, HDTVRip-AVC] - торрент

    Нажмите синюю кнопку, чтобы cкачать бесплатно через торрент фильм. Фильм доступен на нашем торрент-трекере бесплатно, без регистрации и смс.

    Жажда власти скачать торрентФормат: HDTVRip-AVC, MKV, H.264, AC3

    Режиссер: Алексей Колмогоров

    Продолжительность: 4 х

    Жажда власти скачать торрент

    1625 kbps avg, 0.11 bit/pixel

    Аудио: 48 kHz, AC3 Dolby Digital, 2/0 (L,R) ch,

    Полное имя : С \Жажда.01 серия.2011.HDTVRip-AVC.Metla111.mkv

    Версия формата : Version 2

    Размер файла : 557 Мбайт

    Продолжительность : 42 м.

    Общий поток : 1817 Кбит/сек

    Дата кодирования : UTC 2013-01-21 23:06:05

    Формат/Информация : Advanced Video Codec

    Профиль формата : High@L4.0

    Параметр CABAC формата : Да

    Параметр ReFrames формата : 12 кадров

    Идентификатор кодека : V_MPEG4/ISO/AVC

    Продолжительность : 42 м.

    Битрейт : 1625 Кбит/сек

    Ширина : 1024 пикселя

    Высота : 576 пикселей

    Соотношение сторон : 16:9

    Режим частоты кадров : Постоянный

    Частота кадров : 25,000 кадров/сек

    Цветовое пространство : YUV

    Субдискретизация насыщенности : 4:2:0

    Битовая глубина : 8 бит

    Тип развёртки : Прогрессивная

    Размер потока : 487 Мбайт (87%)

    Библиотека кодирования : x264 core 125 r2208 d9d2288

    Формат/Информация : Audio Coding 3

    Расширение режима : CM (complete main)

    Параметр Endianness формата : Big

    Идентификатор кодека : A_AC3

    Продолжительность : 42 м.

    Вид битрейта : Постоянный

    Битрейт : 192 Кбит/сек

    Каналы : 2 канала

    Расположение каналов : Front: L R

    Частота : 48,0 КГц

    Битовая глубина : 16 бит

    Метод сжатия : С потерями

    Размер потока : 58,9 Мбайт (11%)

    Жажда власти скачать торрент

    Жажда власти скачать торрент

    Жажда власти скачать торрент

    Жажда власти скачать торрент

    Информация о торренте:

    Скачан: 2116 раз

    Статус: Проверен Зарегистрирован на трекере: 2015-02-04 20:56

    Как качать с торрента?

    Лучше посмотреть старую версию.

    А новую снимали по пьянке и с отвращением к зрителю.

    Первое: роль криминала выделено особенно. (наверно спонсировали)

    Бездарное понимание структуры вермахта. Румынский офицер на машине СС с водителем из вермахта. Эмблема на автомобиле воинского подразделения, которое в то время находилось в Европе.

    Скачать торрент Тармашев C

    Скачать Тармашев C. - Жажда Власти (2017) FB2 торрент

    Жажда власти скачать торрент

    Жажда власти скачать торрент

    Галактические войны, полные опасных приключений и тонких политических интриг! Битвы цивилизаций за престол, ради победы в которых можно рискнуть всем! Императорская гонка началась. Правило одно: Император должен быть из другой Галактики. Ловчая сеть ноль-переходов откроет порталы, и у цивилизаций, желающих обрести Императора, будут ровно одни имперские сутки. На этот раз Ловчая сеть указала на очень хорошо знакомую нам планету…

    Сергей Тармашев — молодой российский писатель. Большая часть информации о прошлом этого человека засекречена. Известно о нем очень немногое – офицер в седьмом поколении, не женат, детей нет, окончил Суворовское училище, рос по гарнизонам в семье военного, служил в спецназе ГРУ, работал инструктором по рукопашному бою.

    Живет в Москве, пишет фантастические романы. Первой заметной работой стал цикл «Древний», рассказывающий, что станет с миром и человечеством после глобальной ядерной трагедии, за несколько часов уничтожившей цивилизацию.

    Жажда власти скачать торрент

    Тармашев C. - Жажда Власти (2017) FB2

    Жажда власти скачать торрент

    Автор: С. Тармашев

    Галактические войны, полные опасных приключений и тонких политических интриг! Битвы цивилизаций за престол, ради победы в которых можно рискнуть всем! Императорская гонка началась. Правило одно: Император должен быть из другой Галактики. Ловчая сеть ноль-переходов откроет порталы, и у цивилизаций, желающих обрести Императора, будут ровно одни имперские сутки. На этот раз Ловчая сеть указала на очень хорошо знакомую нам планету…

    Сергей Тармашев — молодой российский писатель. Большая часть информации о прошлом этого человека засекречена. Известно о нем очень немногое – офицер в седьмом поколении, не женат, детей нет, окончил Суворовское училище, рос по гарнизонам в семье военного, служил в спецназе ГРУ, работал инструктором по рукопашному бою.

    Живет в Москве, пишет фантастические романы. Первой заметной работой стал цикл «Древний», рассказывающий, что станет с миром и человечеством после глобальной ядерной трагедии, за несколько часов уничтожившей цивилизацию.